Tags
Language
Tags

Steve Lukather - Luke (1997)

Posted By: JET 1
Steve Lukather - Luke (1997)

Steve Lukather - Luke (1997)
EAC Rip | FLAC (Image) +CUE, LOG | 350 MB | Scans
Genre: Rock | Label: Miramar Records | Catalog Number: 09006-23098-2

The Third Solo Album from the Toto Guitarist and Singer Where "Luke" Gets the Heaviness Out of his System, Since He Has to Put the Reigns on his Metallic Inclinations in the Context of his Day Job. Lukather Once Again Demostrates his Monstrous Talent with an Outstanding Set of Songs and Musicianship. It Ain't Toto for Sure, but If You Are a Toto Fan and Lean Toward Some of their Louder Rock Pieces, Then this Disc is Absolutely Essential for Your Collection.

Exact Audio Copy V0.99 prebeta 4 from 23. January 2008

EAC extraction logfile from 8. January 2012, 22:36

Steve Lukather / Luke

Used drive : ATAPI iHAS120 6 Adapter: 0 ID: 2

Read mode : Secure
Utilize accurate stream : Yes
Defeat audio cache : Yes
Make use of C2 pointers : No

Read offset correction : 6
Overread into Lead-In and Lead-Out : No
Fill up missing offset samples with silence : Yes
Delete leading and trailing silent blocks : No
Null samples used in CRC calculations : Yes
Used interface : Native Win32 interface for Win NT & 2000

Used output format : Internal WAV Routines
Sample format : 44.100 Hz; 16 Bit; Stereo


TOC of the extracted CD

Track | Start | Length | Start sector | End sector
––––––––––––––––––––––––––––-
1 | 0:00.00 | 5:10.02 | 0 | 23251
2 | 5:10.02 | 4:54.22 | 23252 | 45323
3 | 10:04.24 | 5:38.60 | 45324 | 70733
4 | 15:43.09 | 5:44.72 | 70734 | 96605
5 | 21:28.06 | 5:56.09 | 96606 | 123314
6 | 27:24.15 | 4:49.18 | 123315 | 145007
7 | 32:13.33 | 4:40.18 | 145008 | 166025
8 | 36:53.51 | 5:38.66 | 166026 | 191441
9 | 42:32.42 | 4:27.39 | 191442 | 211505
10 | 47:00.06 | 5:50.18 | 211506 | 237773
11 | 52:50.24 | 6:42.27 | 237774 | 267950
12 | 59:32.51 | 9:33.73 | 267951 | 310998


Range status and errors

Selected range

Filename F:\EAC\Steve Lukather - Luke (1997)\Steve Lukather - Luke (1997).wav

Peak level 98.9 %
Range quality 100.0 %
Copy CRC 23BAB994
Copy OK

No errors occurred


AccurateRip summary

Track 1 accurately ripped (confidence 7) [2B9559C8]
Track 2 accurately ripped (confidence 8) [75818E84]
Track 3 accurately ripped (confidence 8) [78270A01]
Track 4 accurately ripped (confidence 8) [C8650C29]
Track 5 accurately ripped (confidence 7) [FAA41461]
Track 6 accurately ripped (confidence 8) [7AC489CA]
Track 7 accurately ripped (confidence 7) [4265CE93]
Track 8 accurately ripped (confidence 8) [80A096E9]
Track 9 accurately ripped (confidence 7) [0564F3A0]
Track 10 accurately ripped (confidence 8) [896E9060]
Track 11 accurately ripped (confidence 7) [46717C43]
Track 12 accurately ripped (confidence 8) [35868EC1]

All tracks accurately ripped

End of status report

Tracklist :::
1 The Real Truth Lukather, Waybill 5:10
2 Broken Machine Lukather, Soussan 4:54
3 Tears of My Own Shame Lukather, Soussan 5:38
4 Love the Things You Hate Lukather, Soussan 5:44
5 Hate Everything About U Crowell, Lukather 5:56
6 Reservations to Live (The Way It Is) Lukather, Waybill 4:49
7 Don't Hang Me On Lukather, Soussan 4:40
8 Always Be There for Me Lukather 5:38
9 Open Your Heart Goodrum, Lukather 4:27
10 Bag O' Tales Lukather, Soussan 5:50
11 Bluebird Stills 6:42
12 Pump [live] Hymas, Phillips 9:33

personnel ::::
Maxi Anderson - Vocals (bckgr)
Gregg Bissonette - Percussion, Drums
Jim Cox - Organ (Hammond), Fender Rhodes, Wurlitzer
Steve Lukather - Guitar (Acoustic), Arranger, Guitar (Electric), Keyboards, Organ (Hammond), Vocals, Vocals (bckgr),
Jay Dee Maness - Pedal Steel
Pino Palladino - Bass
John Pierce - Bass
Alfie Silas - Vocals (bckgr)
Philip Soussan - Bass, Vocals (bckgr)
Brett Tuggle - Keyboards