Subcategories

Stevie Ray Vaughan and Double Trouble - Soul To Soul (1985) [Reissue 1999]

Posted By: hill0
Stevie Ray Vaughan and Double Trouble - Soul To Soul (1985) [Reissue 1999]

Stevie Ray Vaughan and Double Trouble - Soul To Soul (1985) [Reissue 1999]
EAC Rip | FLAC (image & cue & log) | 384 MB | MP3 CBR 320 kbps | 151 MB | Scans (JPEG) | 57:20
Genre: Blues Rock / Pop Rock | Country: USA | Label: Epic/Legacy | EK 65872

Soul to Soul is the third studio album by American blues rock band Stevie Ray Vaughan and Double Trouble released on September 30, 1985 by Epic Records. Recording sessions took place between March and May 1985 at the Dallas Sound Lab in Dallas, Texas. Vaughan wrote four of Soul to Soul's ten tracks; two songs were released as singles. The album went to #34 on the Billboard 200 chart and the music video for "Change It" received regular rotation on MTV. In 1999, a reissue of the album was released, which includes an audio interview segment and two studio outtakes.
Stevie Ray Vaughan and Double Trouble - Soul To Soul (1985) [Reissue 1999]

By adding two members to Double Trouble – keyboardist Reese Wynans and saxophonist Joe Sublett – Stevie Ray Vaughan indicated he wanted to add soul and R&B inflections to his basic blues sound, and Soul to Soul does exactly that. It's still a modern blues album, yet it has a wider sonic palette, finding Vaughan fusing a variety of blues, rock, and R&B styles. Most of this is done through covers – notably Hank Ballard's "Look at Little Sister," the exquisitely jazzy "Gone Home," and Doyle Bramhall's impassioned soul-blues "Change It" – but Vaughan's songwriting occasionally follows suit, as well. Even if only the tortured blues wailer "Ain't Gone 'n' Give Up on Love" entered his acknowledged canon, he throws in some delightful soul-funk touches on "Say What!," the instrumental wah-wah workout that kicks off the album, and the Curtis Mayfield-inspired closer, "Life Without You," captures Vaughan at his best as a composer and performer. It's such a seductive number – such a full realization of his soul-blues ambitions – that the rest of the album pales in comparison. In fact, for all of its positive attributes, Soul to Soul winds up being less than the sum of its parts, and it's hard to pinpoint an exact reason why. Perhaps it was because Vaughan was on the verge of a horrible battle with substance abuse at the time of recording or perhaps it just has that unevenness inherent in transitional albums. Still, he has good taste in covers, his originals are sturdy, and there's not a bad performance here, so Soul to Soul winds up enjoyable in spite of its flaws, and it clearly points the way to his 1989 masterpiece, In Step.
~Review by Stephen Thomas Erlewine
Stevie Ray Vaughan and Double Trouble - Soul To Soul (1985) [Reissue 1999]




Tracklist:

01. Say What! 05:23
02. Lookin' Out The Window (Doyle Bramhall) 02:48
03. Look At Little Sister (Hank Ballard) 03:08
04. Ain't Gone 'N' Give Up On Love 06:07
05. Gone Home (Eddie Harris) 03:07
06. Change It (Bramhall) 03:57
07. You'll Be Mine (Willie Dixon) 03:45
08. Empty Arms 03:03
09. Come On (Part III) (Earl King) 04:31
10. Life Without You 04:28
Bonus Tracks:
11. SRV Speaks 01:42
12. Little Wing/Third Stone From The Sun (Jimi Hendrix) 13:32
13. Slip Slidin' Slim 01:42

Exact Audio Copy V1.0 beta 3 from 29. August 2011

EAC extraction logfile from 16. June 2015, 14:08

Stevie Ray Vaughan & Double Trouble / Soul To Soul

Used drive : PIONEER BD-RW BDR-TD03 Adapter: 0 ID: 1

Read mode : Secure
Utilize accurate stream : Yes
Defeat audio cache : Yes
Make use of C2 pointers : No

Read offset correction : 667
Overread into Lead-In and Lead-Out : No
Fill up missing offset samples with silence : Yes
Delete leading and trailing silent blocks : No
Null samples used in CRC calculations : Yes
Used interface : Native Win32 interface for Win NT & 2000

Used output format : User Defined Encoder
Selected bitrate : 768 kBit/s
Quality : High
Add ID3 tag : No
Command line compressor : C:\Program Files (x86)\Exact Audio Copy\FLAC\FLAC.EXE
Additional command line options : -6 -V -T "ARTIST=%artist%" -T "TITLE=%title%" -T "ALBUM=%albumtitle%" -T "DATE=%year%" -T "TRACKNUMBER=%tracknr%" -T "GENRE=%genre%" -T "COMMENT=%comment%" -T "BAND=%albuminterpret%" -T "ALBUMARTIST=%albuminterpret%" -T "COMPOSER=%composer%" %haslyrics%–tag-from-file=LYRICS="%lyricsfile%"%haslyrics% -T "DISCNUMBER=%cdnumber%" -T "TOTALDISCS=%totalcds%" -T "TOTALTRACKS=%numtracks%" %hascover%–picture="%coverfile%"%hascover% %source% -o %dest%


TOC of the extracted CD

Track | Start | Length | Start sector | End sector
––––––––––––––––––––––––––––-
1 | 0:00.00 | 5:23.67 | 0 | 24291
2 | 5:23.67 | 2:48.58 | 24292 | 36949
3 | 8:12.50 | 3:08.62 | 36950 | 51111
4 | 11:21.37 | 6:07.50 | 51112 | 78686
5 | 17:29.12 | 3:07.58 | 78687 | 92769
6 | 20:36.70 | 3:57.55 | 92770 | 110599
7 | 24:34.50 | 3:45.70 | 110600 | 127544
8 | 28:20.45 | 3:03.65 | 127545 | 141334
9 | 31:24.35 | 4:31.52 | 141335 | 161711
10 | 35:56.12 | 4:28.10 | 161712 | 181821
11 | 40:24.22 | 1:42.00 | 181822 | 189471
12 | 42:06.22 | 13:32.20 | 189472 | 250391
13 | 55:38.42 | 1:42.15 | 250392 | 258056


Range status and errors

Selected range

Filename C:\Users\Deris\Desktop\vaug85\Stevie Ray Vaughan & Double Trouble - Soul To Soul.wav

Peak level 100.0 %
Extraction speed 4.8 X
Range quality 100.0 %
Test CRC 780BD193
Copy CRC 780BD193
Copy OK

No errors occurred


AccurateRip summary

Track 1 accurately ripped (confidence 8) [1E975E64] (AR v2)
Track 2 accurately ripped (confidence 8) [601358BE] (AR v2)
Track 3 accurately ripped (confidence 8) [563AD8C6] (AR v2)
Track 4 accurately ripped (confidence 8) [7E8955C4] (AR v2)
Track 5 accurately ripped (confidence 8) [B057B4CA] (AR v2)
Track 6 accurately ripped (confidence 8) [97196D8C] (AR v2)
Track 7 accurately ripped (confidence 8) [273166C9] (AR v2)
Track 8 accurately ripped (confidence 8) [1D38F95C] (AR v2)
Track 9 accurately ripped (confidence 8) [B312BB67] (AR v2)
Track 10 accurately ripped (confidence 7) [B72D0063] (AR v2)
Track 11 accurately ripped (confidence 8) [0760713D] (AR v2)
Track 12 accurately ripped (confidence 7) [2521390F] (AR v2)
Track 13 accurately ripped (confidence 8) [13B01168] (AR v2)

All tracks accurately ripped

End of status report

–– CUETools DB Plugin V2.1.3

[CTDB TOCID: ZWS_cOCg9KEb9quM0dlpb1LGqXI-] found, Submit result: ZWS_cOCg9KEb9quM0dlpb1LGqXI- has been confirmed
[8f5d9635] (14/14) Accurately ripped


==== Log checksum B4CDCAC3B633B95B3702C5A4E26E5570574A32A4B4BAAF2EB6886B4EAF420743 ====

[CUETools log; Date: 09.06.2016 12:33:25; Version: 2.1.5]
[CTDB TOCID: ZWS_cOCg9KEb9quM0dlpb1LGqXI-] found.
Track | CTDB Status
1 | (25/26) Accurately ripped
2 | (25/26) Accurately ripped
3 | (25/26) Accurately ripped
4 | (25/26) Accurately ripped
5 | (25/26) Accurately ripped
6 | (25/26) Accurately ripped
7 | (25/26) Accurately ripped
8 | (24/26) Accurately ripped
9 | (24/26) Accurately ripped
10 | (25/26) Accurately ripped
11 | (25/26) Accurately ripped
12 | (25/26) Accurately ripped
13 | (25/26) Accurately ripped
[AccurateRip ID: 001a032a-01058621-af0d700d] found.
Track [ CRC | V2 ] Status
01 [6f76e20d|1e975e64] (07+10/56) Accurately ripped
02 [116b1938|601358be] (07+10/56) Accurately ripped
03 [4f2f0a18|563ad8c6] (07+10/56) Accurately ripped
04 [0c374284|7e8955c4] (07+10/56) Accurately ripped
05 [36b504c4|b057b4ca] (07+10/56) Accurately ripped
06 [1c70c668|97196d8c] (07+10/56) Accurately ripped
07 [f65e8ac6|273166c9] (07+10/56) Accurately ripped
08 [f65d7f1a|1d38f95c] (07+10/56) Accurately ripped
09 [714d915f|b312bb67] (07+10/56) Accurately ripped
10 [b4cb7d3b|b72d0063] (07+09/55) Accurately ripped
11 [fc98e8c6|0760713d] (07+10/53) Accurately ripped
12 [e5183e2c|2521390f] (07+09/56) Accurately ripped
13 [6d49dd5e|13b01168] (07+10/55) Accurately ripped
Offsetted by 1109:
01 [44332a1f] (03/56) Accurately ripped
02 [8f06505c] (03/56) Accurately ripped
03 [cc57c7ca] (03/56) Accurately ripped
04 [357ebe44] (03/56) Accurately ripped
05 [016574ee] (03/56) Accurately ripped
06 [b9076a93] (03/56) Accurately ripped
07 [1898158e] (03/56) Accurately ripped
08 [a4b49004] (03/56) Accurately ripped
09 [dee2c2e8] (03/56) Accurately ripped
10 [c96e85c4] (03/55) Accurately ripped
11 [1ba85cfd] (03/53) Accurately ripped
12 [32c81cd1] (03/56) Accurately ripped
13 [6332921e] (03/55) Accurately ripped
Offsetted by 1115:
01 [92f377eb] (14/56) Accurately ripped
02 [12ee1c04] (14/56) Accurately ripped
03 [d0f1bd46] (14/56) Accurately ripped
04 [f7da8ac4] (14/56) Accurately ripped
05 [a3632dfa] (14/56) Accurately ripped
06 [bf6a918d] (14/56) Accurately ripped
07 [ab21837e] (14/56) Accurately ripped
08 [4c8b7b90] (14/56) Accurately ripped
09 [e32c0d46] (14/56) Accurately ripped
10 [9a38b222] (14/55) Accurately ripped
11 [68ab5c27] (13/53) Accurately ripped
12 [26538fc7] (14/56) Accurately ripped
13 [121e5c9e] (14/55) Accurately ripped
Offsetted by 1256:
01 [fe163e89] (06/56) Accurately ripped
02 [2b38b54c] (06/56) Accurately ripped
03 [bd13c628] (06/56) Accurately ripped
04 [4f47d084] (06/56) Accurately ripped
05 [022daa94] (06/56) Accurately ripped
06 [5584a580] (06/56) Accurately ripped
07 [1ebf1b06] (06/56) Accurately ripped
08 [34c61aea] (06/56) Accurately ripped
09 [47e660e7] (06/56) Accurately ripped
10 [c4c7c4c3] (06/55) Accurately ripped
11 [d2f24cef] (06/53) Accurately ripped
12 [50883b1b] (06/56) Accurately ripped
13 [20c3735e] (06/55) Accurately ripped
Offsetted by 1262:
01 [11007581] (02/56) Accurately ripped
02 [af1a7f28] (02/56) Accurately ripped
03 [c1adbba4] (02/56) Accurately ripped
04 [11a39d04] (02/56) Accurately ripped
05 [a42b63a0] (02/56) Accurately ripped
06 [5be7cc7a] (02/56) Accurately ripped
07 [b14888f6] (02/56) Accurately ripped
08 [dc9d0676] (02/56) Accurately ripped
09 [4c2fab45] (02/56) Accurately ripped
10 [9591f121] (02/55) Accurately ripped
11 [b3ae2718] (00/53) No match
12 [0bb071ba] (02/56) Accurately ripped
13 [cfaf3dde] (02/55) Accurately ripped

Track Peak [ CRC32 ] [W/O NULL] [ LOG ]
– 99,9 [780BD193] [50A10CCF] CRC32
01 99,9 [0B6FA70C] [8743B278]
02 99,9 [781AFE23] [E827D146]
03 99,9 [8957D76E] [8CCCD9BC]
04 99,6 [87267CE4] [F1EE803E]
05 95,8 [055A52D8] [3E6FFBBA]
06 95,6 [5EA1FE57] [CC56F8A9]
07 90,5 [EA0167B3] [48520CDF]
08 93,8 [425C1315] [5DE97212]
09 99,9 [B98401E3] [F30D00A8]
10 75,4 [9D79B62D] [08FEB9CA]
11 61,2 [34A76252] [C663BEB3]
12 99,9 [DD9DB75A] [E1784CEB]
13 83,3 [A4FEAE45] [A2902453]


Musicians

Stevie Ray Vaughan – guitar, vocals, drums
Tommy Shannon – bass, vocals
Chris Layton – drums, vocals
Reese Wynans – keyboards, vocals
Joe Sublett – saxophone

Stevie Ray Vaughan and Double Trouble - Soul To Soul (1985) [Reissue 1999]


All thanks go to Boris1
=====