Subcategories
Tags
Language
Tags

Strange - Souvenir Album [Recorded 1974-1978] (2009) (Re-up)

Posted By: gribovar
Strange - Souvenir Album [Recorded 1974-1978] (2009) (Re-up)

Strange - Souvenir Album [Recorded 1974-1978] (2009)
EAC Rip | APE (image+.cue+log) - 225 MB | MP3 CBR 320 kbps (LAME 3.93) - 101 MB | Covers - 20 MB
Genre: Psychedelic Rock | RAR 3% Rec. | Label: Shadoks Music (Shadoks Music 106)

Shadoks Music has rescued yet another obscure recording for our enjoyment - Souvenir Album by Strange. The disc features eight songs proper and four segments of other tunes recorded from 1974 to 1978, and more than anything highlights the songwriting abilities of David Chamberlain, the band’s multi-instrumentalist and singer.
Even in their hometown of Olympia, Washington, Strange was far from a household name, and never really broke beyond playing local venues. By 1978, as Chamberlain was putting the material together for an actual album, Strange had disbanded. Still, Chamberlain waded through tapes of old material, committing the best bits to a master reel, and then handed them over to a gentleman named George Yantiss, “who had a small ‘record label’ in his home,” according to the liners. Yantiss “mastered” the tape and Chamberlain distributed copies for free to friends. Yantiss’ work will never be confused with the studio mastery of, say, Bob Ludwig or Alan Parsons, but the roughness around the edges gives Souvenir an odd grace, like the photos your parents took with an Instamatic camera.
The music ranges from early Pink Floyd to Jefferson Airplane to Neil Young and beyond.
Tracklist:
01. Segment from Barapp (9-75)
02. Somebody
03. The Ballad of Hollis Spaceman
04. Four Eyes
05. Segment from Barapp
06. Segment from on Winning the War / A Faced Dream
07. Rick's Song
08. Segment from Mushroom Wednesday / Lies by Poetic License
09. Twelve Boats
10. The Last Song

Total time: 42:58

Exact Audio Copy V0.99 prebeta 5 from 4. May 2009

EAC extraction logfile from 20. April 2011, 21:28

Strange / Souvenir Album

Used drive : TSSTcorpDVD+-RW TS-U633A Adapter: 0 ID: 1

Read mode : Secure
Utilize accurate stream : Yes
Defeat audio cache : Yes
Make use of C2 pointers : No

Read offset correction : 6
Overread into Lead-In and Lead-Out : No
Fill up missing offset samples with silence : Yes
Delete leading and trailing silent blocks : No
Null samples used in CRC calculations : Yes
Used interface : Native Win32 interface for Win NT & 2000

Used output format : Internal WAV Routines
Sample format : 44.100 Hz; 16 Bit; Stereo


TOC of the extracted CD

Track | Start | Length | Start sector | End sector
––––––––––––––––––––––––––––-
1 | 0:00.00 | 1:14.27 | 0 | 5576
2 | 1:14.27 | 6:10.62 | 5577 | 33388
3 | 7:25.14 | 7:06.58 | 33389 | 65396
4 | 14:31.72 | 5:39.29 | 65397 | 90850
5 | 20:11.26 | 0:41.72 | 90851 | 93997
6 | 20:53.23 | 4:18.54 | 93998 | 113401
7 | 25:12.02 | 2:30.43 | 113402 | 124694
8 | 27:42.45 | 5:37.33 | 124695 | 150002
9 | 33:20.03 | 5:05.74 | 150003 | 172951
10 | 38:26.02 | 4:31.36 | 172952 | 193312


Range status and errors

Selected range

Filename C:\_Arc\BARIN99\Strange - Souvenir Album\Strange - Souvenir Album.wav

Peak level 97.7 %
Range quality 99.9 %
Copy CRC 61659B38
Copy OK

No errors occurred


AccurateRip summary

Track 1 not present in database
Track 2 not present in database
Track 3 not present in database
Track 4 not present in database
Track 5 not present in database
Track 6 not present in database
Track 7 not present in database
Track 8 not present in database
Track 9 not present in database
Track 10 not present in database

None of the tracks are present in the AccurateRip database

End of status report

[CUETools log; Date: 23.02.2021 14:56:58; Version: 2.1.4]
[CTDB TOCID: sywhyA6eQ8sjS61gQCdMUYRMpvo-] found.
Track | CTDB Status
1 | (1/1) Accurately ripped
2 | (1/1) Accurately ripped
3 | (1/1) Accurately ripped
4 | (1/1) Accurately ripped
5 | (1/1) Accurately ripped
6 | (1/1) Accurately ripped
7 | (1/1) Accurately ripped
8 | (1/1) Accurately ripped
9 | (1/1) Accurately ripped
10 | (1/1) Accurately ripped
[AccurateRip ID: 000fec79-007fffa5-710a110a] disk not present in database.

Track Peak [ CRC32 ] [W/O NULL] [ LOG ]
– 97,7 [61659B38] [957C6C3F] CRC32
01 97,7 [F8DC793F] [DFFF69A4]
02 97,7 [97F80141] [171E0482]
03 97,7 [940A98F5] [69C295A7]
04 97,7 [0D47EEF9] [1858ACEA]
05 97,7 [4ACE7296] [047DCEC7]
06 97,7 [4349F229] [EA3AFEBB]
07 69,2 [7F58BEFD] [FE7896DC]
08 95,2 [A48719CE] [2DE717A9]
09 97,7 [35825BD5] [1CF8E19D]
10 97,7 [D7509DD5] [C2DA4FF1]

Thanks to barin99