Subcategories

Strauss conducts Strauss, Mozart, Beethoven (Richard Strauss) (2014)

Posted By: Ebisu
Strauss conducts Strauss, Mozart, Beethoven (Richard Strauss) (2014)

Strauss conducts Strauss, Mozart, Beethoven (Richard Strauss) (2014)
Classical | Eac. Flac, Img+Cue, Log | Covers | 1.65 GB
Label: Deutsche Grammophon | Catalog N.: 479 2703 |G|B7| TT: 434 min

Strauss sits alongside Mahler as a leading conductor – as well as composer - of his age, winning plaudits and support even before the age of 20 from contemporaneous luminaries such as Hans von Bülow. In fact between them, Mahler and Strauss controlled the two most powerful opera houses in the world in their mid-Thirties, with Strauss in Berlin and Mahler in Vienna.
This set brings together his major recordings for Polydor/Deutsche Grammophon. Taking his lead from the greatest conductor of late nineteenth century, Hans von Bülow, Strauss sought to make his conducting ‘of compelling necessity borne of the form and content of the work, with no wasted posturing or inauthentic emotion’.
This 7CD set allows the full spectrum of his conducting to be admired, from 3 CDs of his own major tone poems to his startlingly modern, almost period-instrument-style Mozart from the early LP era and fascinating recordings of Beethoven’s 5th and 7th Symphonies.
Cast:
Staatskapelle Berlin
Berliner Philharmoniker
Bayerisches Staatsorchester
Richard Strauss, conductor

Tracklist:
CD1 (67:00)
Richard Strauss
1. Don Juan
2. Till Eulenspiegels lustige Streiche
3. Symphonic Interlude from Intermezzo
4. Dance of the Seven Veils from Salome
5. Tod und Verklarung
CD2 (72:48)
01-13. Richard Strauss - Don Quixote
14-22. Richard Strauss - Der Burger als Edelmann
CD3 (69:15)
01-06. Richard Strauss - Ein Heldenleben
07. Japanische Festmusik
08. Waltz Sequence from Der Rosenkavalier, Act II
09. Waltz Sequence from Der Rosenkavalier, Act III
CD4 (73:36)
Wolfgang Amadeus Mozart
01-04. Symphony No.39 K 543
05-08. Symphony No.40 K 550
09-12. Symphony No.41 'Jupiter' K 551
13. Overture to Die Zauberflote
CD5 (60:55)
Ludwig van Beethoven
01-04. Symphony No.5
05-08. Symphony No.7
CD6 (43:00)
01. Gluck - Overture to Iphigenie en Aulide
02. Weber - Overture to Euryanthe
03. Wagner - Overture to Der fliegende Hollander
04. Wagner - Prelude to Tristan und Isolde
05. Cornelius - Overture to Der Barbier von Bagdad
CD7 (48:43)
Richard Strauss
01-13. Don Quixote
14. Zueignung
15. Die Nacht
16. Ruhe, meine Seele
17. Das Geheimnis


: 128 kBit/s
Quality : High
Add ID3 tag : No
Command line compressor : C:\Program Files\FLAC\flac.exe
Additional command line options : -T "COMMENT=Ripped by GFox" -8 -V %s


TOC of the extracted CD

Track | Start | Length | Start sector | End sector
––––––––––––––––––––––––––––-
1 | 0:00.33 | 15:51.00 | 33 | 71357
2 | 15:51.33 | 14:41.65 | 71358 | 137497
3 | 30:33.23 | 6:16.60 | 137498 | 165757
4 | 36:50.08 | 8:46.25 | 165758 | 205232
5 | 45:36.33 | 21:24.20 | 205233 | 301552


Range status and errors

Selected range

Filename D:\EAC\Strauss - conducts Strauss (CD1).wav

Peak level 99.5 %
Extraction speed 1.0 X
Range quality 99.9 %
Test CRC 7AB676B5
Copy CRC 7AB676B5
Copy OK

No errors occurred


AccurateRip summary

Track 1 cannot be verified as accurate (confidence 3) [FC09EAB8], AccurateRip returned [70F95010]
Track 2 cannot be verified as accurate (confidence 3) [67B621B4], AccurateRip returned [85D07780]
Track 3 cannot be verified as accurate (confidence 2) [9DF6E224], AccurateRip returned [BF8AD60B]
Track 4 cannot be verified as accurate (confidence 3) [41B76551], AccurateRip returned [E029B084]
Track 5 cannot be verified as accurate (confidence 3) [CA0E0408], AccurateRip returned [FC856888]

No tracks could be verified as accurate
You may have a different pressing from the one(s) in the database

End of status report

==== Log checksum 4DCAADC65FFA9C81F6828340BDC7FEED391C1AB4DCCA18C067E4D3F073994A11 ====


Exact Audio Copy V1.0 beta 1 from 15. November 2010

EAC extraction logfile from 16. May 2014, 0:10

Strauss / conducts Strauss (CD2)

Used drive : Optiarc DVD RW AD-7203A Adapter: 4 ID: 1

Read mode : Secure
Utilize accurate stream : Yes
Defeat audio cache : Yes
Make use of C2 pointers : No

Read offset correction : 48
Overread into Lead-In and Lead-Out : No
Fill up missing offset samples with silence : Yes
Delete leading and trailing silent blocks : No
Null samples used in CRC calculations : Yes
Used interface : Native Win32 interface for Win NT & 2000

Used output format : User Defined Encoder
Selected bitrate : 128 kBit/s
Quality : High
Add ID3 tag : No
Command line compressor : C:\Program Files\FLAC\flac.exe
Additional command line options : -T "COMMENT=Ripped by GFox" -8 -V %s


TOC of the extracted CD

Track | Start | Length | Start sector | End sector
––––––––––––––––––––––––––––-
1 | 0:00.33 | 6:00.32 | 33 | 27064
2 | 6:00.65 | 2:11.48 | 27065 | 36937
3 | 8:12.38 | 2:32.72 | 36938 | 48409
4 | 10:45.35 | 1:38.68 | 48410 | 55827
5 | 12:24.28 | 7:25.52 | 55828 | 89254
6 | 19:50.05 | 1:48.28 | 89255 | 97382
7 | 21:38.33 | 2:57.72 | 97383 | 110729
8 | 24:36.30 | 1:13.05 | 110730 | 116209
9 | 25:49.35 | 0:58.00 | 116210 | 120559
10 | 26:47.35 | 1:40.35 | 120560 | 128094
11 | 28:27.70 | 0:59.45 | 128095 | 132564
12 | 29:27.40 | 3:40.10 | 132565 | 149074
13 | 33:07.50 | 4:32.10 | 149075 | 169484
14 | 37:39.60 | 4:09.63 | 169485 | 188222
15 | 41:49.48 | 1:56.25 | 188223 | 196947
16 | 43:45.73 | 1:42.45 | 196948 | 204642
17 | 45:28.43 | 4:56.15 | 204643 | 226857
18 | 50:24.58 | 2:31.07 | 226858 | 238189
19 | 52:55.65 | 2:25.68 | 238190 | 249132
20 | 55:21.58 | 4:15.22 | 249133 | 268279
21 | 59:37.05 | 3:28.60 | 268280 | 283939
22 | 63:05.65 | 9:42.58 | 283940 | 327647


Range status and errors

Selected range

Filename D:\EAC\Strauss - conducts Strauss (CD2).wav

Peak level 92.4 %
Extraction speed 0.4 X
Range quality 99.9 %
Test CRC 1111FFA7
Copy CRC 1111FFA7
Copy OK

No errors occurred


AccurateRip summary

Track 1 cannot be verified as accurate (confidence 3) [4C6E0344], AccurateRip returned [ADA9820C]
Track 2 cannot be verified as accurate (confidence 3) [BBA8CF78], AccurateRip returned [7442407B]
Track 3 cannot be verified as accurate (confidence 3) [DC81A9B0], AccurateRip returned [9F8B5E72]
Track 4 cannot be verified as accurate (confidence 3) [8BE9D59D], AccurateRip returned [69212134]
Track 5 cannot be verified as accurate (confidence 3) [5A994B4E], AccurateRip returned [BF23B71B]
Track 6 cannot be verified as accurate (confidence 3) [3EB3BB20], AccurateRip returned [577EEB35]
Track 7 cannot be verified as accurate (confidence 3) [6B60AA03], AccurateRip returned [F5957236]
Track 8 cannot be verified as accurate (confidence 3) [155B15ED], AccurateRip returned [7D06FD14]
Track 9 cannot be verified as accurate (confidence 3) [E5FAF25C], AccurateRip returned [7A9DAF44]
Track 10 cannot be verified as accurate (confidence 3) [F121AE9D], AccurateRip returned [E9FFED67]
Track 11 cannot be verified as accurate (confidence 3) [DE164F22], AccurateRip returned [A436D093]
Track 12 cannot be verified as accurate (confidence 3) [43380455], AccurateRip returned [EB5593F2]
Track 13 cannot be verified as accurate (confidence 3) [2DE57F5C], AccurateRip returned [4A361EBA]
Track 14 cannot be verified as accurate (confidence 3) [0177F61A], AccurateRip returned [4E97A9BB]
Track 15 cannot be verified as accurate (confidence 3) [F7282B0E], AccurateRip returned [066D45BE]
Track 16 cannot be verified as accurate (confidence 3) [43770725], AccurateRip returned [932F4D12]
Track 17 cannot be verified as accurate (confidence 3) [726A73A4], AccurateRip returned [B4CD9B29]
Track 18 cannot be verified as accurate (confidence 3) [7C98D976], AccurateRip returned [959F28F0]
Track 19 cannot be verified as accurate (confidence 3) [AFAF462C], AccurateRip returned [F2BF45E5]
Track 20 cannot be verified as accurate (confidence 3) [89FE1D67], AccurateRip returned [3B293667]
Track 21 cannot be verified as accurate (confidence 3) [78F6B8B6], AccurateRip returned [5699BF55]
Track 22 cannot be verified as accurate (confidence 3) [8B017D98], AccurateRip returned [86451F77]

No tracks could be verified as accurate
You may have a different pressing from the one(s) in the database

End of status report

==== Log checksum C84AACFA1474905473680350A5FD06C30FF805AD7079BD98FA50C1C642388D9C ====


Exact Audio Copy V1.0 beta 1 from 15. November 2010

EAC extraction logfile from 16. May 2014, 19:48

Strauss / conducts Strauss (CD3)

Used drive : Optiarc DVD RW AD-7203A Adapter: 4 ID: 1

Read mode : Secure
Utilize accurate stream : Yes
Defeat audio cache : Yes
Make use of C2 pointers : No

Read offset correction : 48
Overread into Lead-In and Lead-Out : No
Fill up missing offset samples with silence : Yes
Delete leading and trailing silent blocks : No
Null samples used in CRC calculations : Yes
Used interface : Native Win32 interface for Win NT & 2000

Used output format : User Defined Encoder
Selected bitrate : 128 kBit/s
Quality : High
Add ID3 tag : No
Command line compressor : C:\Program Files\FLAC\flac.exe
Additional command line options : -T "COMMENT=Ripped by GFox" -8 -V %s


TOC of the extracted CD

Track | Start | Length | Start sector | End sector
––––––––––––––––––––––––––––-
1 | 0:00.33 | 3:54.72 | 33 | 17654
2 | 3:55.30 | 2:43.03 | 17655 | 29882
3 | 6:38.33 | 11:05.72 | 29883 | 79829
4 | 17:44.30 | 7:08.43 | 79830 | 111972
5 | 24:52.73 | 5:41.45 | 111973 | 137592
6 | 30:34.43 | 9:09.32 | 137593 | 178799
7 | 39:44.00 | 14:10.73 | 178800 | 242622
8 | 53:54.73 | 7:34.25 | 242623 | 276697
9 | 61:29.23 | 7:46.10 | 276698 | 311657


Range status and errors

Selected range

Filename D:\EAC\Strauss - conducts Strauss (CD3).wav

Peak level 96.6 %
Extraction speed 0.3 X
Range quality 99.9 %
Test CRC 15BF4D5C
Copy CRC 15BF4D5C
Copy OK

No errors occurred


AccurateRip summary

Track 1 cannot be verified as accurate (confidence 3) [60BF2B8B], AccurateRip returned [000CEFF8]
Track 2 cannot be verified as accurate (confidence 3) [26C09FA4], AccurateRip returned [24820570]
Track 3 cannot be verified as accurate (confidence 3) [E558BF48], AccurateRip returned [D259EEF5]
Track 4 cannot be verified as accurate (confidence 3) [FA24BC54], AccurateRip returned [1A4F188A]
Track 5 cannot be verified as accurate (confidence 3) [40DF6245], AccurateRip returned [2077FC7A]
Track 6 cannot be verified as accurate (confidence 3) [E9F59BD5], AccurateRip returned [3FB0EB0A]
Track 7 cannot be verified as accurate (confidence 3) [085E9BCD], AccurateRip returned [D66C9B73]
Track 8 cannot be verified as accurate (confidence 3) [400689F3], AccurateRip returned [7AD53097]
Track 9 cannot be verified as accurate (confidence 3) [BCC9DE34], AccurateRip returned [AD36E91C]

No tracks could be verified as accurate
You may have a different pressing from the one(s) in the database

End of status report

==== Log checksum 291FD7B5BF3B954F6D4513E361A1EF18EF05A34F949C97E87817F3D676A1714D ====


Exact Audio Copy V1.0 beta 1 from 15. November 2010

EAC extraction logfile from 16. May 2014, 20:39

Strauss / conducts Strauss (CD4)

Used drive : Optiarc DVD RW AD-7203A Adapter: 4 ID: 1

Read mode : Secure
Utilize accurate stream : Yes
Defeat audio cache : Yes
Make use of C2 pointers : No

Read offset correction : 48
Overread into Lead-In and Lead-Out : No
Fill up missing offset samples with silence : Yes
Delete leading and trailing silent blocks : No
Null samples used in CRC calculations : Yes
Used interface : Native Win32 interface for Win NT & 2000

Used output format : User Defined Encoder
Selected bitrate : 128 kBit/s
Quality : High
Add ID3 tag : No
Command line compressor : C:\Program Files\FLAC\flac.exe
Additional command line options : -T "COMMENT=Ripped by GFox" -8 -V %s


TOC of the extracted CD

Track | Start | Length | Start sector | End sector
––––––––––––––––––––––––––––-
1 | 0:00.00 | 7:47.47 | 0 | 35071
2 | 7:47.47 | 7:42.11 | 35072 | 69732
3 | 15:29.58 | 2:53.00 | 69733 | 82707
4 | 18:22.58 | 3:43.08 | 82708 | 99440
5 | 22:05.66 | 5:30.23 | 99441 | 124213
6 | 27:36.14 | 7:20.53 | 124214 | 157266
7 | 34:56.67 | 3:43.59 | 157267 | 174050
8 | 38:40.51 | 4:56.37 | 174051 | 196287
9 | 43:37.13 | 7:01.34 | 196288 | 227896
10 | 50:38.47 | 7:35.46 | 227897 | 262067
11 | 58:14.18 | 3:51.13 | 262068 | 279405
12 | 62:05.31 | 5:37.64 | 279406 | 304744
13 | 67:43.20 | 5:53.01 | 304745 | 331220


Range status and errors

Selected range

Filename D:\EAC\Strauss - conducts Strauss (CD4).wav

Peak level 96.8 %
Extraction speed 0.2 X
Range quality 100.0 %
Test CRC 775926CD
Copy CRC 775926CD
Copy OK

No errors occurred


AccurateRip summary

Track 1 not present in database
Track 2 not present in database
Track 3 not present in database
Track 4 not present in database
Track 5 not present in database
Track 6 not present in database
Track 7 not present in database
Track 8 not present in database
Track 9 not present in database
Track 10 not present in database
Track 11 not present in database
Track 12 not present in database
Track 13 not present in database

None of the tracks are present in the AccurateRip database

End of status report

==== Log checksum BE0B2B56B53A4C292F508BAD18B418D6797F8C64715E7C5B8017CAFC3BE039E5 ====


Exact Audio Copy V1.0 beta 1 from 15. November 2010

EAC extraction logfile from 16. May 2014, 21:15

Strauss / conducts Strauss (CD5)

Used drive : Optiarc DVD RW AD-7203A Adapter: 4 ID: 1

Read mode : Secure
Utilize accurate stream : Yes
Defeat audio cache : Yes
Make use of C2 pointers : No

Read offset correction : 48
Overread into Lead-In and Lead-Out : No
Fill up missing offset samples with silence : Yes
Delete leading and trailing silent blocks : No
Null samples used in CRC calculations : Yes
Used interface : Native Win32 interface for Win NT & 2000

Used output format : User Defined Encoder
Selected bitrate : 128 kBit/s
Quality : High
Add ID3 tag : No
Command line compressor : C:\Program Files\FLAC\flac.exe
Additional command line options : -T "COMMENT=Ripped by GFox" -8 -V %s


TOC of the extracted CD

Track | Start | Length | Start sector | End sector
––––––––––––––––––––––––––––-
1 | 0:00.00 | 5:55.00 | 0 | 26624
2 | 5:55.00 | 9:04.00 | 26625 | 67424
3 | 14:59.00 | 4:29.65 | 67425 | 87664
4 | 19:28.65 | 8:27.10 | 87665 | 125699
5 | 27:56.00 | 11:11.00 | 125700 | 176024
6 | 39:07.00 | 8:52.00 | 176025 | 215924
7 | 47:59.00 | 8:29.00 | 215925 | 254099
8 | 56:28.00 | 4:27.00 | 254100 | 274124


Range status and errors

Selected range

Filename D:\EAC\Strauss - conducts Strauss (CD5).wav

Peak level 92.6 %
Extraction speed 0.3 X
Range quality 99.9 %
Test CRC 40A2A16A
Copy CRC 40A2A16A
Copy OK

No errors occurred


AccurateRip summary

Track 1 not present in database
Track 2 not present in database
Track 3 not present in database
Track 4 not present in database
Track 5 not present in database
Track 6 not present in database
Track 7 not present in database
Track 8 not present in database

None of the tracks are present in the AccurateRip database

End of status report

==== Log checksum 1B8946F59715E58360CBF0C35D0319E3275B07B9FCC2D5C0B7D9CF711FB30256 ====


Exact Audio Copy V1.0 beta 1 from 15. November 2010

EAC extraction logfile from 16. May 2014, 23:48

Strauss / conducts Strauss (CD6)

Used drive : Optiarc DVD RW AD-7203A Adapter: 4 ID: 1

Read mode : Secure
Utilize accurate stream : Yes
Defeat audio cache : Yes
Make use of C2 pointers : No

Read offset correction : 48
Overread into Lead-In and Lead-Out : No
Fill up missing offset samples with silence : Yes
Delete leading and trailing silent blocks : No
Null samples used in CRC calculations : Yes
Used interface : Native Win32 interface for Win NT & 2000

Used output format : User Defined Encoder
Selected bitrate : 128 kBit/s
Quality : High
Add ID3 tag : No
Command line compressor : C:\Program Files\FLAC\flac.exe
Additional command line options : -T "COMMENT=Ripped by GFox" -8 -V %s


TOC of the extracted CD

Track | Start | Length | Start sector | End sector
––––––––––––––––––––––––––––-
1 | 0:00.00 | 9:28.36 | 0 | 42635
2 | 9:28.36 | 7:38.33 | 42636 | 77018
3 | 17:06.69 | 9:36.17 | 77019 | 120235
4 | 26:43.11 | 9:09.63 | 120236 | 161473
5 | 35:52.74 | 7:07.23 | 161474 | 193521


Range status and errors

Selected range

Filename D:\EAC\Strauss - conducts Strauss (CD6).wav

Peak level 94.2 %
Extraction speed 0.6 X
Range quality 100.0 %
Test CRC F840EE94
Copy CRC F840EE94
Copy OK

No errors occurred


AccurateRip summary

Track 1 not present in database
Track 2 not present in database
Track 3 not present in database
Track 4 not present in database
Track 5 not present in database

None of the tracks are present in the AccurateRip database

End of status report

==== Log checksum C50B54C185A982178A6C318697AEA9B55962FE957E2BABA671A5574BF31F3496 ====


Exact Audio Copy V1.0 beta 1 from 15. November 2010

EAC extraction logfile from 17. May 2014, 0:36

Strauss / conducts Strauss (CD7)

Used drive : Optiarc DVD RW AD-7203A Adapter: 4 ID: 1

Read mode : Secure
Utilize accurate stream : Yes
Defeat audio cache : Yes
Make use of C2 pointers : No

Read offset correction : 48
Overread into Lead-In and Lead-Out : No
Fill up missing offset samples with silence : Yes
Delete leading and trailing silent blocks : No
Null samples used in CRC calculations : Yes
Used interface : Native Win32 interface for Win NT & 2000

Used output format : User Defined Encoder
Selected bitrate : 128 kBit/s
Quality : High
Add ID3 tag : No
Command line compressor : C:\Program Files\FLAC\flac.exe
Additional command line options : -T "COMMENT=Ripped by GFox" -8 -V %s


TOC of the extracted CD

Track | Start | Length | Start sector | End sector
––––––––––––––––––––––––––––-
1 | 0:00.00 | 6:02.17 | 0 | 27166
2 | 6:02.17 | 2:05.50 | 27167 | 36591
3 | 8:07.67 | 2:41.27 | 36592 | 48693
4 | 10:49.19 | 1:32.03 | 48694 | 55596
5 | 12:21.22 | 7:42.40 | 55597 | 90286
6 | 20:03.62 | 1:53.46 | 90287 | 98807
7 | 21:57.33 | 3:34.60 | 98808 | 114917
8 | 25:32.18 | 1:15.32 | 114918 | 120574
9 | 26:47.50 | 1:00.19 | 120575 | 125093
10 | 27:47.69 | 1:45.40 | 125094 | 133008
11 | 29:33.34 | 0:59.60 | 133009 | 137493
12 | 30:33.19 | 3:39.14 | 137494 | 153932
13 | 34:12.33 | 4:24.24 | 153933 | 173756
14 | 38:36.57 | 1:45.48 | 173757 | 181679
15 | 40:22.30 | 2:53.13 | 181680 | 194667
16 | 43:15.43 | 3:02.34 | 194668 | 208351
17 | 46:18.02 | 2:25.55 | 208352 | 219281


Range status and errors

Selected range

Filename D:\EAC\Strauss - conducts Strauss (CD7).wav

Peak level 90.4 %
Extraction speed 0.1 X
Range quality 100.0 %
Test CRC C436BDC7
Copy CRC C436BDC7
Copy OK

No errors occurred


AccurateRip summary

Track 1 not present in database
Track 2 not present in database
Track 3 not present in database
Track 4 not present in database
Track 5 not present in database
Track 6 not present in database
Track 7 not present in database
Track 8 not present in database
Track 9 not present in database
Track 10 not present in database
Track 11 not present in database
Track 12 not present in database
Track 13 not present in database
Track 14 not present in database
Track 15 not present in database
Track 16 not present in database
Track 17 not present in database

None of the tracks are present in the AccurateRip database

End of status report

==== Log checksum 68206DB4E7A32418C958F9EBD97096994F5101529F3578994E84B8DBA2D05A31 ====


“Thanks to the original releaser"