Tags
Language
Tags

Stray Cats - Rumble In Brixton (2004) 2CDs

Posted By: Designol
Stray Cats - Rumble In Brixton (2004) 2CDs

Stray Cats - Rumble In Brixton (2004) 2CDs
EAC | FLAC | Image (Cue&Log) ~ 596 Mb | Mp3 (CBR320) ~ 212 Mb | Scans included
Rock & Roll, Rockabilly | Label: Surfdog Records | # 44063-2 | Time: 01:26:09

In 2004, the Stray Cats reassembled for a month-long tour of Europe. A live album culled from those concerts, Rumble in Brixton, included one new studio track, "Mystery Train Kept A Rollin'". Their first ever official live release is a double disc containing three never before released songs, a brand new studio track (their first since 1991) called "Mystery Train Kept A Rollin'", and a 24-page deluxe booklet containing rare vintage photos of the band's early years.

This rather short double-disc package documents the British dates of the re-formed 2004 Stray Cats, specifically one show in Brixton. The 22-song set includes all of their big hits, a handful of logical if intriguing covers ("Ubangi Stomp," "My Baby Left Me," "That's All Right," "Good Rockin' Tonight," and "Twenty Flight Rock"), and even a new studio track, the trio's first original composition in a decade. Although the band hadn't played together in a while, all of the members have stayed busy and their chops are as sharp – if not sharper – than in the old days. Additionally, England is where they first made a popular splash, so they are obviously thrilled to be back on their old stomping grounds, adding to the edgy sense of excitement in the performance. Most of these concert renditions are hotter and hence arguably better than the previously recorded counterparts, and the Cats' manic enthusiasm bursts out of the speakers, even without the accompanying DVD visuals. As the only member who went on to a formidable solo career, guitarist/singer/frontman Brian Setzer sounds particularly inspired as he tears into these nuggets, most of which, like the trusty vamp "Stray Cat Strut," are over two decades old. Setzer even occasionally relinquishes the vocal spotlight to bassist Lee Rocker, who is a more than adequate and underappreciated singer. The intense energy level never lets up as the bandmembers charge through the set with a sweaty fire it's doubtful they could have mustered even in their prime. The new studio song tacked on as the last cut, "Mystery Train Kept A Rollin'," is a rockabilly tribute to Elvis and his Sun Records contemporaries that won't set new standards for the Cats, but is an indication that there is still plenty of gas in the group's tank. Editing out a track or two would have allowed the entire gig to fit on a single disc instead of expanding it to two short ones, but otherwise the Stray Cats' first official live album is worth the extended wait.

Review by Hal Horowitz, Allmusic.com

Stray Cats - Rumble In Brixton (2004) 2CDs



Tracklist:

CD1:

01. Intro (0:14)
02. Rumble in Brighton (3:52)
03. Double Talkin' Baby (3:34)
04. Something's Wrong With My Radio (3:15)
05. Ubangi Stomp (4:00)
06. Stray Cat Strut (4:03)
07. Gene & Eddie (4:33)
08. Too Hip Gotta Go (2:43)
09. Sleepwalk (5:01)
10. I Won't Stand In Your Way (4:42)
11. My Baby Left Me (3:59)
12. Blast Off (3:01)

CD2:

01. Intro (0:43)
02. 18 Miles to Memphis (3:45)
03. Bring It Back Again (3:01)
04. Fishnet Stockings (4:09)
05. Runaway Boys (3:53)
06. Rock This Town (6:28)
07. That's All Right (2:50)
08. Good Rockin' Tonight (2:42)
09. Twenty Flight Rock (3:39)
10. (She's) Sexy + 17 (4:00)
11. Please Don't Touch (3:49)
12. Mystery Train Kept A Rollin' (4:12)


Exact Audio Copy V0.99 prebeta 4 from 23. January 2008

Отчёт EAC об извлечении, выполненном 5. августа 2008, 18:27

Stray Cats / Rumble in Brixton Disc 1

Дисковод: ATAPI DVD A DH16A1P Adapter: 1 ID: 0

Режим чтения : Достоверность
Использование точного потока : Да
Отключение кэша аудио : Да
Использование указателей C2 : Нет

Коррекция смещения при чтении : 6
Способность читать области Lead-in и Lead-out : Нет
Заполнение пропущенных сэмплов тишиной : Да
Удаление блоков с тишиной в начале и конце : Нет
При вычислениях CRC использовались нулевые сэмплы : Нет
Интерфейс : Встроенный Win32-интерфейс для Win NT/2000

Выходной формат : Внутренние WAV-операции
Формат сэмплов : 44.100 Гц; 16 бит; стерео


TOC извлечённого CD

Трек | Старт | Длительность | Начальный сектор | Конечный сектор
––––––––––––––––––––––––––––––––––-
1 | 0:00.00 | 0:13.39 | 0 | 1013
2 | 0:13.39 | 3:52.15 | 1014 | 18428
3 | 4:05.54 | 3:34.12 | 18429 | 34490
4 | 7:39.66 | 3:14.71 | 34491 | 49111
5 | 10:54.62 | 4:00.19 | 49112 | 67130
6 | 14:55.06 | 4:03.23 | 67131 | 85378
7 | 18:58.29 | 4:32.64 | 85379 | 105842
8 | 23:31.18 | 2:43.20 | 105843 | 118087
9 | 26:14.38 | 5:01.15 | 118088 | 140677
10 | 31:15.53 | 4:41.70 | 140678 | 161822
11 | 35:57.48 | 3:58.44 | 161823 | 179716
12 | 39:56.17 | 3:00.72 | 179717 | 193288


Характеристики диапазона извлечения и сообщения об ошибках

Выбранный диапазон

Имя файла C:\SC\Stray Cats - Rumble in Brixton Disc 1.wav

Пиковый уровень 99.6 %
Качество диапазона 100.0 %
CRC копии 6E30B9E3
Копирование… OK

Ошибок не произошло


AccurateRip: сводка

Трек 1 точное извлечение (доверие 5) [B0B32774]
Трек 2 точное извлечение (доверие 5) [5EB21403]
Трек 3 точное извлечение (доверие 5) [630054C4]
Трек 4 точное извлечение (доверие 5) [E366B840]
Трек 5 точное извлечение (доверие 5) [207ADAE9]
Трек 6 точное извлечение (доверие 5) [D5C30D03]
Трек 7 точное извлечение (доверие 5) [6F269E24]
Трек 8 точное извлечение (доверие 5) [4DFE7A10]
Трек 9 точное извлечение (доверие 5) [F08737C5]
Трек 10 точное извлечение (доверие 5) [EA4055DD]
Трек 11 точное извлечение (доверие 5) [7C587F5A]
Трек 12 точное извлечение (доверие 5) [BFB907F8]

Все треки извлечены точно

Конец отчёта

[CUETools log; Date: 23.10.2020 19:10:11; Version: 2.1.7]
[CTDB TOCID: Wa_Y9FARnnh_teC0b3VE8CEZus4-] found.
Track | CTDB Status
1 | (24/24) Accurately ripped
2 | (24/24) Accurately ripped
3 | (24/24) Accurately ripped
4 | (24/24) Accurately ripped
5 | (24/24) Accurately ripped
6 | (24/24) Accurately ripped
7 | (24/24) Accurately ripped
8 | (24/24) Accurately ripped
9 | (24/24) Accurately ripped
10 | (24/24) Accurately ripped
11 | (24/24) Accurately ripped
12 | (24/24) Accurately ripped
[AccurateRip ID: 00119fb2-00ab0161-a90a110c] found.
Track [ CRC | V2 ] Status
01 [b0b32774|6967618f] (09+12/21) Accurately ripped
02 [5eb21403|847100c2] (09+12/21) Accurately ripped
03 [630054c4|3eddb238] (09+12/21) Accurately ripped
04 [e366b840|6d505a2e] (09+12/21) Accurately ripped
05 [207adae9|793a9ecf] (09+12/21) Accurately ripped
06 [d5c30d03|63e69847] (09+12/21) Accurately ripped
07 [6f269e24|81c159f0] (09+12/21) Accurately ripped
08 [4dfe7a10|e3e94572] (09+12/21) Accurately ripped
09 [f08737c5|8448a5dc] (09+12/21) Accurately ripped
10 [ea4055dd|e5bfc8a4] (09+12/21) Accurately ripped
11 [7c587f5a|77f16e8c] (09+12/21) Accurately ripped
12 [bfb907f8|1ab5664b] (09+12/21) Accurately ripped

Track Peak [ CRC32 ] [W/O NULL] [ LOG ]
– 99,6 [D785B853] [6E30B9E3] W/O NULL
01 91,7 [51188896] [15EA1675]
02 98,8 [7123BFB5] [CE3E70C2]
03 98,8 [0BB17E4F] [7D9B4F7E]
04 98,8 [39450BCA] [358C76FC]
05 98,8 [F5C9BCE7] [B1305837]
06 98,8 [85F59C65] [66C82FC6]
07 98,8 [CFE7E075] [86CE5E7E]
08 99,2 [0FE32A96] [97E12A68]
09 98,8 [F43F8093] [E820AAD3]
10 98,8 [12712B63] [64035B43]
11 98,8 [543D73B5] [8022B79F]
12 99,6 [55A48832] [8F8BF4C7]

foobar2000 1.5 / Dynamic Range Meter 1.1.1
log date: 2020-10-23 19:06:05

––––––––––––––––––––––––––––––––––––––––
Analyzed: Stray Cats / Rumble in Brixton Disc 1
––––––––––––––––––––––––––––––––––––––––

DR Peak RMS Duration Track
––––––––––––––––––––––––––––––––––––––––
DR8 -0.75 dB -13.02 dB 0:14 01-Intro
DR8 -0.10 dB -9.46 dB 3:52 02-Rumble in Brighton
DR8 -0.10 dB -9.50 dB 3:34 03-Double Talkin' Baby
DR8 -0.10 dB -9.12 dB 3:15 04-Something's Wrong With My Radio
DR8 -0.10 dB -8.98 dB 4:00 05-Ubangi Stomp
DR9 -0.10 dB -10.59 dB 4:03 06-Stray Cat Strut
DR9 -0.10 dB -10.30 dB 4:33 07-Gene & Eddie
DR9 -0.07 dB -9.99 dB 2:43 08-Too Hip Gotta Go
DR10 -0.10 dB -12.19 dB 5:01 09-Sleepwalk
DR9 -0.10 dB -10.92 dB 4:42 10-I Won't Stand In Your Way
DR8 -0.10 dB -9.24 dB 3:59 11-My Baby Left Me
DR7 -0.03 dB -8.48 dB 3:01 12-Blast Off
––––––––––––––––––––––––––––––––––––––––

Number of tracks: 12
Official DR value: DR8

Samplerate: 44100 Hz
Channels: 2
Bits per sample: 16
Bitrate: 955 kbps
Codec: FLAC
================================================================================


Exact Audio Copy V0.99 prebeta 4 from 23. January 2008

Отчёт EAC об извлечении, выполненном 5. августа 2008, 18:57

Stray Cats / Rumble in Brixton Disc 2

Дисковод: ATAPI DVD A DH16A1P Adapter: 1 ID: 0

Режим чтения : Достоверность
Использование точного потока : Да
Отключение кэша аудио : Да
Использование указателей C2 : Нет

Коррекция смещения при чтении : 6
Способность читать области Lead-in и Lead-out : Нет
Заполнение пропущенных сэмплов тишиной : Да
Удаление блоков с тишиной в начале и конце : Нет
При вычислениях CRC использовались нулевые сэмплы : Нет
Интерфейс : Встроенный Win32-интерфейс для Win NT/2000

Выходной формат : Внутренние WAV-операции
Формат сэмплов : 44.100 Гц; 16 бит; стерео


TOC извлечённого CD

Трек | Старт | Длительность | Начальный сектор | Конечный сектор
––––––––––––––––––––––––––––––––––-
1 | 0:00.00 | 0:43.32 | 0 | 3256
2 | 0:43.32 | 3:45.02 | 3257 | 20133
3 | 4:28.34 | 3:01.22 | 20134 | 33730
4 | 7:29.56 | 4:09.22 | 33731 | 52427
5 | 11:39.03 | 3:52.71 | 52428 | 69898
6 | 15:31.74 | 6:28.00 | 69899 | 98998
7 | 21:59.74 | 2:49.56 | 98999 | 111729
8 | 24:49.55 | 2:41.58 | 111730 | 123862
9 | 27:31.38 | 3:38.63 | 123863 | 140275
10 | 31:10.26 | 4:00.35 | 140276 | 158310
11 | 35:10.61 | 3:48.56 | 158311 | 175466
12 | 38:59.42 | 4:12.36 | 175467 | 194402


Характеристики диапазона извлечения и сообщения об ошибках

Выбранный диапазон

Имя файла C:\SC\Stray Cats - Rumble in Brixton Disc 2.wav

Пиковый уровень 100.0 %
Качество диапазона 100.0 %
CRC копии 7EC32C9C
Копирование… OK

Ошибок не произошло


AccurateRip: сводка

Трек 1 точное извлечение (доверие 5) [D71C64DF]
Трек 2 точное извлечение (доверие 5) [022384E1]
Трек 3 точное извлечение (доверие 5) [7D7E0337]
Трек 4 точное извлечение (доверие 5) [878638C2]
Трек 5 точное извлечение (доверие 5) [DEEF8C31]
Трек 6 точное извлечение (доверие 5) [89072CE4]
Трек 7 точное извлечение (доверие 5) [D6D99578]
Трек 8 точное извлечение (доверие 5) [FBEBE8A1]
Трек 9 точное извлечение (доверие 5) [463DBA1B]
Трек 10 точное извлечение (доверие 5) [9A5A5F4A]
Трек 11 точное извлечение (доверие 5) [791A3517]
Трек 12 точное извлечение (доверие 5) [09E8ACF0]

Все треки извлечены точно

Конец отчёта

[CUETools log; Date: 23.10.2020 19:10:29; Version: 2.1.7]
[CTDB TOCID: PCucaqDJ12md9rBfLxFM5Cvkc7k-] found.
Track | CTDB Status
1 | (42/42) Accurately ripped
2 | (42/42) Accurately ripped
3 | (42/42) Accurately ripped
4 | (42/42) Accurately ripped
5 | (42/42) Accurately ripped
6 | (42/42) Accurately ripped
7 | (42/42) Accurately ripped
8 | (42/42) Accurately ripped
9 | (42/42) Accurately ripped
10 | (42/42) Accurately ripped
11 | (42/42) Accurately ripped
12 | (42/42) Accurately ripped
[AccurateRip ID: 00120b22-00ad5ecf-7c0a200c] found.
Track [ CRC | V2 ] Status
01 [d71c64df|e0e2c6ae] (09+12/33) Accurately ripped
02 [022384e1|37c282b0] (09+12/33) Accurately ripped
03 [7d7e0337|585d0431] (09+11/32) Accurately ripped
04 [878638c2|471df563] (09+12/33) Accurately ripped
05 [deef8c31|c0366135] (09+12/33) Accurately ripped
06 [89072ce4|815f7d01] (09+12/33) Accurately ripped
07 [d6d99578|5dbe6072] (09+12/33) Accurately ripped
08 [fbebe8a1|959ae584] (09+12/33) Accurately ripped
09 [463dba1b|10308fc6] (09+12/33) Accurately ripped
10 [9a5a5f4a|6c8c451e] (09+12/33) Accurately ripped
11 [791a3517|8ae885f6] (09+12/33) Accurately ripped
12 [09e8acf0|b6105b14] (08+12/32) Accurately ripped
Offsetted by -815:
01 [97354c5c] (02/33) Accurately ripped
02 [2eef36d3] (02/33) Accurately ripped
03 [13c95aaf] (02/32) Accurately ripped
04 [9c9adea9] (02/33) Accurately ripped
05 [7d84a684] (02/33) Accurately ripped
06 [882ffab9] (02/33) Accurately ripped
07 [9150f1f8] (02/33) Accurately ripped
08 [75ca07dd] (02/33) Accurately ripped
09 [9ad1b885] (02/33) Accurately ripped
10 [2fc14e40] (02/33) Accurately ripped
11 [c56f123d] (02/33) Accurately ripped
12 [767218ba] (02/32) Accurately ripped
Offsetted by -1308:
01 [2602057b] (00/33) No match (V2 was not tested)
02 [61a8b6d6] (00/33) No match (V2 was not tested)
03 [ce81d0ca] (00/32) No match (V2 was not tested)
04 [e9478702] (00/33) No match (V2 was not tested)
05 [e37b7ea0] (00/33) No match (V2 was not tested)
06 [68ec0e0e] (00/33) No match (V2 was not tested)
07 [3b6a7faa] (00/33) No match (V2 was not tested)
08 [a33001f1] (00/33) No match (V2 was not tested)
09 [a14e2360] (00/33) No match (V2 was not tested)
10 [3c4a80fa] (00/33) No match (V2 was not tested)
11 [ae8067fb] (00/33) No match (V2 was not tested)
12 [3b660c58] (00/32) No match (V2 was not tested)
Offsetted by -134:
01 [13f3ede1] (00/33) No match (V2 was not tested)
02 [63ea259e] (00/33) No match (V2 was not tested)
03 [4eacca89] (00/32) No match (V2 was not tested)
04 [60df2c8f] (00/33) No match (V2 was not tested)
05 [6216e011] (00/33) No match (V2 was not tested)
06 [5c4f2f99] (00/33) No match (V2 was not tested)
07 [08bd249a] (00/33) No match (V2 was not tested)
08 [07a050ee] (00/33) No match (V2 was not tested)
09 [5d4166bb] (00/33) No match (V2 was not tested)
10 [460bd30e] (00/33) No match (V2 was not tested)
11 [b004ef31] (00/33) No match (V2 was not tested)
12 [b0a47df4] (00/32) No match (V2 was not tested)

Track Peak [ CRC32 ] [W/O NULL] [ LOG ]
– 100,0 [0548C0AE] [7EC32C9C] W/O NULL
01 71,9 [8E1AB3F3] [8047875A]
02 98,8 [770CEB05] [F455BCF5]
03 99,3 [0B08A786] [3CA5EBBE]
04 98,8 [A80CF39A] [D67ACB4C]
05 98,8 [8C247DE8] [D154CC70]
06 99,9 [032454EB] [3EC5F3CC]
07 100,0 [B9B9548D] [B46FBD32]
08 98,8 [FC6EB7F0] [C6859E2F]
09 98,8 [461D8509] [6F21D6FE]
10 99,2 [9EC9023C] [596358F6]
11 100,0 [ED6B315D] [061480B4]
12 100,0 [44A5DDD7] [460FFDD4]

foobar2000 1.5 / Dynamic Range Meter 1.1.1
log date: 2020-10-23 19:08:40

––––––––––––––––––––––––––––––––––––––––
Analyzed: Stray Cats / Rumble in Brixton Disc 2
––––––––––––––––––––––––––––––––––––––––

DR Peak RMS Duration Track
––––––––––––––––––––––––––––––––––––––––
DR11 -2.87 dB -18.10 dB 0:43 01-Intro
DR7 -0.10 dB -8.05 dB 3:45 02-18 Miles to Memphis
DR8 -0.05 dB -8.78 dB 3:01 03-Bring It Back Again
DR7 -0.10 dB -9.19 dB 4:09 04-Fishnet Stockings
DR7 -0.10 dB -8.36 dB 3:53 05-Runaway Boys
DR7 0.00 dB -8.13 dB 6:28 06-Rock This Town
DR8 0.00 dB -9.48 dB 2:50 07-That's All Right
DR8 -0.10 dB -9.95 dB 2:42 08-Good Rockin' Tonight
DR8 -0.10 dB -9.95 dB 3:39 09-Twenty Flight Rock
DR8 -0.07 dB -9.12 dB 4:00 10-(She's) Sexy + 17
DR8 0.00 dB -9.56 dB 3:49 11-Please Don't Touch
DR9 0.00 dB -11.20 dB 4:12 12-Mystery Train Kept A Rollin'
––––––––––––––––––––––––––––––––––––––––

Number of tracks: 12
Official DR value: DR8

Samplerate: 44100 Hz
Channels: 2
Bits per sample: 16
Bitrate: 980 kbps
Codec: FLAC
================================================================================

Stray Cats - Rumble In Brixton (2004) 2CDs

Stray Cats - Rumble In Brixton (2004) 2CDs

All thanks to original releaser

More interesting music in My Blog