Tags
Language
Tags

Stream - Nothing Is Sacred (1998) [Japanese Ed.]

Posted By: Andi_Deris
Stream - Nothing Is Sacred (1998) [Japanese Ed.]

Stream - Nothing Is Sacred (1998) [Japanese Ed.]
EAC Rip | FLAC: Image+Cue+Log | 389 Mb | MP3 CBR 320 kbps | 148 Mb | Scans | Time: 49:14
Hard Rock, Heavy Metal | Ironic Records | IRO-002

"Nothing Is Sacred" is the second studio album by STREAM. Awesome musicians such as David Glenn Eisley, Eric Singer and Bob Daisley really make this album an exciting listen. The songs are heavy and catchy. This is sort of like KISS's "Carnical of Souls" album.

Stream - Nothing Is Sacred (1998) [Japanese Ed.]




Stream - Nothing Is Sacred (1998) [Japanese Ed.]


Track Listing

01. Chasin The Dragon (03:48)
02. Snake Eyed Moon (04:18)
03. Rock Bottom (06:13)
04. Camon Flage (04:42)
05. Fade To Black (05:43)
06. Bed Of Fire (04:43)
07. Blood For Gold (04:53)
08. Far From The Maddening Crowd (04:11)
09. The Other Side (instrumental) (05:24)
10. Still Believe (Touch Of A Stranger) (05:19)

Produced by Stream

The Band

• David Glen Eisley (Giuffria, Dirty White Boy, Murderer's Row) : vocals
• Peter Scheithauer (Enemy Of God, Temple Of Brutality, Killing Machine, Belladonna) : guitar
• Bob Daisley (Kahvas Jute, The Rage, Planet Alliance, Mother's Army, Living Loud, Vertex, Widowmaker, Chicken Shack, Gary Moore, Takara, Dio, The Hoochie Coochie Men, Yngwie Malmsteen, Rainbow, Ozzy Osbourne, Uriah Heep, Black Sabbath) : bass
• Eric Singer (Black Sabbath, Lita Ford, Avantasia, Beau Coup, Brian May, Union, Gary Moore, Kiss, Alice Cooper, Badlands, Paul Stanley) : drums

• Pat Regan (Billy The Kid, Doro, Kelly Keeling, Graham Bonnet, Iain Ashley Hersey, Fake I.D.) : keyboards
• Pat Torpey (Impellitteri, Velocity, Mr. Big, Richie Kotzen) : drums
• Chuck Wright (David Glen Eisley, House of Lords, Impellitteri, Quiet Riot, Murderer's Row, Kuni, Doro, …) : dass

Exact Audio Copy V1.1 from 23. June 2015

Отчёт EAC об извлечении, выполненном 29. марта 2016, 20:16

Stream / Nothing Is Sacred

Дисковод: PLEXTOR BD-R PX-B950SA Adapter: 1 ID: 0

Режим чтения : Достоверность
Использование точного потока : Да
Отключение кэша аудио : Да
Использование указателей C2 : Нет

Коррекция смещения при чтении : 6
Способность читать области Lead-in и Lead-out : Нет
Заполнение пропущенных сэмплов тишиной : Да
Удаление блоков с тишиной в начале и конце : Нет
При вычислениях CRC использовались нулевые сэмплы : Да
Интерфейс : Встроенный Win32-интерфейс для Win NT/2000

Выходной формат : Пользовательский кодировщик
Выбранный битрейт : 1024 kBit/s
Качество : Высокий
Добавление ID3-тега : Нет
Утилита сжатия : C:\Program Files (x86)\Exact Audio Copy\FLAC\FLAC.EXE
Дополнительные параметры : -6 -V -T "ARTIST=%artist%" -T "TITLE=%title%" -T "ALBUM=%albumtitle%" -T "DATE=%year%" -T "TRACKNUMBER=%tracknr%" -T "GENRE=%genre%" -T "COMMENT=%comment%" -T "BAND=%albuminterpret%" -T "ALBUMARTIST=%albuminterpret%" -T "COMPOSER=%composer%" %haslyrics%–tag-from-file=LYRICS="%lyricsfile%"%haslyrics% -T "DISCNUMBER=%cdnumber%" -T "TOTALDISCS=%totalcds%" -T "TOTALTRACKS=%numtracks%" %hascover%–picture="%coverfile%"%hascover% %source% -o %dest%


TOC извлечённого CD

Трек | Старт | Длительность | Начальный сектор | Конечный сектор
––––––––––––––––––––––––––––––––––-
1 | 0:00.00 | 3:48.15 | 0 | 17114
2 | 3:48.15 | 4:18.30 | 17115 | 36494
3 | 8:06.45 | 6:12.40 | 36495 | 64434
4 | 14:19.10 | 4:42.20 | 64435 | 85604
5 | 19:01.30 | 5:42.35 | 85605 | 111289
6 | 24:43.65 | 4:43.05 | 111290 | 132519
7 | 29:26.70 | 4:52.65 | 132520 | 154484
8 | 34:19.60 | 4:10.67 | 154485 | 173301
9 | 38:30.52 | 5:23.60 | 173302 | 197586
10 | 43:54.37 | 5:19.15 | 197587 | 221526


Характеристики диапазона извлечения и сообщения об ошибках

Выбранный диапазон

Имя файла G:\RIP\Stream 1998 Japanese Pressing FLAC by alzal\Stream - Nothing Is Sacred.wav

Пиковый уровень 42.2 %
Скорость извлечения 3.2 X
Качество диапазона 100.0 %
CRC теста 3117DBFB
CRC копии 3117DBFB
Копирование… OK

Ошибок не произошло


AccurateRip: сводка

Трек 1 отсутствует в базе данных
Трек 2 отсутствует в базе данных
Трек 3 отсутствует в базе данных
Трек 4 отсутствует в базе данных
Трек 5 отсутствует в базе данных
Трек 6 отсутствует в базе данных
Трек 7 отсутствует в базе данных
Трек 8 отсутствует в базе данных
Трек 9 отсутствует в базе данных
Трек 10 отсутствует в базе данных

Ни одного трека нет в базе AccurateRip

Конец отчёта

–– CUETools DB Plugin V2.1.6

[CTDB TOCID: JxWbIXHwVadcD8mjw58iDEdVFP0-] disk not present in database
Submit result: JxWbIXHwVadcD8mjw58iDEdVFP0- has been uploaded


Many thanks to the original uploader: alzal

–––––––––
Nitroflare