Tags
Language
Tags
January 2023
Su Mo Tu We Th Fr Sa
1 2 3 4 5 6 7
8 9 10 11 12 13 14
15 16 17 18 19 20 21
22 23 24 25 26 27 28
29 30 31 1 2 3 4

Stuart Hamm - Outbound (2001) {Favored Nations}

Posted By: tiburon
Stuart Hamm - Outbound (2001) {Favored Nations}

Stuart Hamm - Outbound (2001) {Favored Nations}
EAC 0.99pb4 | FLAC Image | Cue+Log | Full Scans 300dpi | 303MB + 5% Recovery
MP3 CBR 320 Kbps | 116MB + 5% Recovery
Genre: Jazz-Rock, Fusion

Another clean album filled with lightning bass work from Stuart Hamm. Exuding a city vibe, Outbound is thick with layered guitar, keyboard, and the aforementioned bass. While his technical skill is almost unrivaled, Hamm seems content to stay in the same Neo-Prog Rock groove for this, his fourth album.
Bassist Stu Hamm's credits include several stints supporting flashy guitarists Steve Vai and Joe Satriani with his equally flashy tapping bass chops back in the late 80s. More recently, Hamm appeared in a project band trio with Frank Gambale and Steve Smith on two instrumental, chop-laden fusion records from the Tone Center label, where the trio wrote clever, aggressive modern fusion. Outbound shows a collection of songs written by Hamm around the turn of the year 2000, and the liner notes explain his urban inspirations and thoughts on the music.
Hamm's bass skills shine on Outbound, as expected, over stiff drumming from Steve Smith on two tracks, and even more stiff electronic drum programming by a duo called Youth Engine, who provides "grooves" and "grooves and vibe" to the other tracks in the form of synths and electronic drums. These textures sound unusual behind Hamm's bass, but they reflect the urban inspirations described in his notes.
Track List
1. Outbound (Hamm) 4:52
2. Remember (Hamm) 4:44
3. The Castro Hustle (Hamm) 5:54
4. The Star Spangled Banner (Key, Smith) 2:39
5. The Memo (Hamm) 5:37
6. The Tenacity Of Genes And Dreams (Hamm) 7:58
7. Charlotte's Song (Hamm) 3:30
8. A Better World (Hamm) 6:05
9. Further Down Market (Hamm) 3:12
10. Lydian (Just Enough For The City) (Hamm) 5:16

musicians
Steve Smith - Drums
Stuart Hamm - Basses, Keyboards, Programming
Mark McGee - Guitar
Judah Gold - Guitar
Frank Martin - Keyboards
Tal Morris - Guitar

Produced by Stuart Hamm and Youth Engine


Exact Audio Copy V0.99 prebeta 4 from 23. January 2008

Отчёт EAC об извлечении, выполненном 21. марта 2010, 16:32

Stuart Hamm / Outbound

Дисковод: ASUS DRW-1814BLT Adapter: 2 ID: 0

Режим чтения : Достоверность
Использование точного потока : Да
Отключение кэша аудио : Да
Использование указателей C2 : Нет

Коррекция смещения при чтении : 6
Способность читать области Lead-in и Lead-out : Нет
Заполнение пропущенных сэмплов тишиной : Да
Удаление блоков с тишиной в начале и конце : Нет
При вычислениях CRC использовались нулевые сэмплы : Да
Интерфейс : Встроенный Win32-интерфейс для Win NT/2000

Выходной формат : Пользовательский кодировщик
Выбранный битрейт : 768 kBit/s
Качество : Высокий
Добавление ID3-тэга : Нет
Утилита сжатия : D:\Program Files\Exact Audio Copy\Flac\Flac.exe
Дополнительные параметры : -8 –delete-input-file -o "D:\CDImage.flac" -V %s


TOC извлечённого CD

Трек | Старт | Длительность | Начальный сектор | Конечный сектор
––––––––––––––––––––––––––––––––––-
1 | 0:00.00 | 4:52.54 | 0 | 21953
2 | 4:52.54 | 4:45.50 | 21954 | 43378
3 | 9:38.29 | 5:46.69 | 43379 | 69397
4 | 15:25.23 | 2:38.46 | 69398 | 81293
5 | 18:03.69 | 5:38.12 | 81294 | 106655
6 | 23:42.06 | 8:00.52 | 106656 | 142707
7 | 31:42.58 | 3:29.72 | 142708 | 158454
8 | 35:12.55 | 6:06.07 | 158455 | 185911
9 | 41:18.62 | 3:12.51 | 185912 | 200362
10 | 44:31.38 | 5:17.61 | 200363 | 224198


Характеристики диапазона извлечения и сообщения об ошибках

Выбранный диапазон

Имя файла D:\Stuart Hamm - Outbound.wav

Пиковый уровень 99.9 %
Качество диапазона 100.0 %
CRC теста 2AE51DA6
CRC копии 2AE51DA6
Копирование… OK

Ошибок не произошло


AccurateRip: сводка

Трек 1 точность не определена (достоверность 9) [1CEEDB13], AccurateRip вернул [20FCF9E5]
Трек 2 точность не определена (достоверность 10) [BE4B7596], AccurateRip вернул [766BDB43]
Трек 3 точность не определена (достоверность 9) [6FA7ED49], AccurateRip вернул [D305710C]
Трек 4 точность не определена (достоверность 11) [9D6EAD85], AccurateRip вернул [A6C8CBCD]
Трек 5 точность не определена (достоверность 10) [6FD4D276], AccurateRip вернул [6574DE23]
Трек 6 точность не определена (достоверность 9) [0BF56730], AccurateRip вернул [EDCFD8BB]
Трек 7 точность не определена (достоверность 11) [1DD147C8], AccurateRip вернул [294D6C60]
Трек 8 точность не определена (достоверность 10) [69B41145], AccurateRip вернул [942211FB]
Трек 9 точность не определена (достоверность 10) [57DEA27F], AccurateRip вернул [777049FD]
Трек 10 точность не определена (достоверность 11) [94FD5472], AccurateRip вернул [00F88132]

Ни один трек не прошёл проверки на точность
В вашей базе может быть иной вариант штамповки диска

Конец отчёта

Stuart Hamm - Outbound (2001) {Favored Nations}
Stuart Hamm - Outbound (2001) {Favored Nations}


Thanks to the original ripper