Tags
Language
Tags

Supertramp - Crisis? What Crisis? (1975)

Posted By: v3122
Supertramp - Crisis? What Crisis? (1975)

Supertramp - Crisis? What Crisis? (1975)
EAC | Flac(Image) + Cue + Log & MP3 CBR 320Kbps
2000 | A&M 394 560-2 | France | ~ 294 or 112 Mb | Artwork(jpg) -> 99 Mb
Progressive Rock | Remastered

Nestled between the accomplished Crime of the Century album and 1977's Even in the Quietest Moments, Crisis? What Crisis? may not have given the band any chart success, but it did help them capture a fan base that had no concern for Supertramp's commercial sound. With Rick Davies showing off his talent on the keyboards, and Roger Hodgson's vocals soaring on almost every track, they managed to win back their earlier progressive audience while gaining new fans at the same time. Crisis received extensive air play on FM stations, especially in Britain, and the album made it into the Top 20 there and fell just outside the Top 40 in the U.S. "Ain't Nobody But Me," "Easy Does It," and the beautiful "Sister Moonshine" highlight Supertramp's buoyant and brisk instrumental and vocal alliance, while John Helliwell's saxophone gives the album even greater width. The songwriting is sharp, attentive, and passionate, and the lyrics showcase Supertramp's ease at invoking emotion into their music, which would be taken to even greater heights in albums to come. Even simple tracks like "Lady" and "Just a Normal Day" blend in nicely with the album's warm personality and charmingly subtle mood. Although the tracks aren't overly contagious or hook laden, there's still a work-in-process type of appeal spread through the cuts, which do grow on you over time.

by Mike DeGagne, allmusic
Supertramp - Crisis? What Crisis? (1975):

Supertramp - Crisis? What Crisis? (1975)

Tracklist:

01. Easy Does It [0:02:18.12]
02. Sister Moonshine [0:05:16.25]
03. Ain’t Nobody but Me [0:05:15.48]
04. A Soapbox Opera [0:04:52.55]
05. Another Man’s Woman [0:06:17.10]
06. Lady [0:05:25.22]
07. Poor Boy [0:05:07.33]
08. Just a Normal Day [0:04:02.40]
09. The Meaning [0:05:23.65]
10. Two of Us [0:03:27.65]

Exact Audio Copy V1.6 from 23. October 2020

EAC extraction logfile from 16. May 2021, 19:32

Supertramp / Crisis What Crisis

Used drive : PLEXTOR DVDR PX-L890SA Adapter: 1 ID: 1

Read mode : Secure
Utilize accurate stream : Yes
Defeat audio cache : Yes
Make use of C2 pointers : No

Read offset correction : 6
Overread into Lead-In and Lead-Out : No
Fill up missing offset samples with silence : Yes
Delete leading and trailing silent blocks : No
Null samples used in CRC calculations : Yes
Used interface : Native Win32 interface for Win NT & 2000

Used output format : User Defined Encoder
Selected bitrate : 1024 kBit/s
Quality : High
Add ID3 tag : No
Command line compressor : C:\Program Files (x86)\Exact Audio Copy\Flac\flac.exe
Additional command line options : -V -8 -T "Date=%year%" -T "Genre=%genre%" %source%


TOC of the extracted CD

Track | Start | Length | Start sector | End sector
––––––––––––––––––––––––––––-
1 | 0:00.00 | 2:18.12 | 0 | 10361
2 | 2:18.12 | 5:16.25 | 10362 | 34086
3 | 7:34.37 | 5:15.48 | 34087 | 57759
4 | 12:50.10 | 4:52.55 | 57760 | 79714
5 | 17:42.65 | 6:17.10 | 79715 | 107999
6 | 24:00.00 | 5:25.22 | 108000 | 132396
7 | 29:25.22 | 5:07.33 | 132397 | 155454
8 | 34:32.55 | 4:02.40 | 155455 | 173644
9 | 38:35.20 | 5:23.65 | 173645 | 197934
10 | 43:59.10 | 3:27.65 | 197935 | 213524


Range status and errors

Selected range

Filename H:\AUDIO\MUSIC\Supertramp\1975. Supertramp - Crisis What Crisis (A&M 394 560-2, France, RM)\Supertramp - Crisis What Crisis.wav

Peak level 100.0 %
Extraction speed 8.3 X
Range quality 100.0 %
Test CRC C16DC28D
Copy CRC C16DC28D
Copy OK

No errors occurred


AccurateRip summary

Track 1 accurately ripped (confidence 90) [D8528523] (AR v2)
Track 2 accurately ripped (confidence 89) [3590C8E0] (AR v2)
Track 3 accurately ripped (confidence 89) [213E92FD] (AR v2)
Track 4 accurately ripped (confidence 89) [E6BD8AF0] (AR v2)
Track 5 accurately ripped (confidence 89) [D15B3546] (AR v2)
Track 6 accurately ripped (confidence 89) [5ACE8938] (AR v2)
Track 7 accurately ripped (confidence 90) [85FE342B] (AR v2)
Track 8 accurately ripped (confidence 90) [2B96B5E2] (AR v2)
Track 9 accurately ripped (confidence 90) [84974428] (AR v2)
Track 10 accurately ripped (confidence 90) [D4B5B22C] (AR v2)

All tracks accurately ripped

End of status report

==== Log checksum CF8D87DB38EF34895B6C63C8AE36447AB28D2DA0F630C3CC9306F2F5DB201D99 ====


[CUETools log; Date: 18.07.2021 13:28:36; Version: 2.1.4]
[AccurateRip ID: 0011be81-009060be-780b1f0a] found.
Track [ CRC | V2 ] Status
01 [fc05c9c6|d8528523] (041+091/188) Accurately ripped
02 [98b09701|3590c8e0] (040+090/187) Accurately ripped
03 [8846add7|213e92fd] (039+090/185) Accurately ripped
04 [33a6ba52|e6bd8af0] (039+090/187) Accurately ripped
05 [6b0f9b15|d15b3546] (040+090/186) Accurately ripped
06 [a5ff680f|5ace8938] (040+090/187) Accurately ripped
07 [bc65fc4e|85fe342b] (039+091/185) Accurately ripped
08 [665d8653|2b96b5e2] (041+091/189) Accurately ripped
09 [bd1e25fb|84974428] (041+091/189) Accurately ripped
10 [e52177e8|d4b5b22c] (040+091/186) Accurately ripped
Offsetted by -1644:
01 [62346603] (021/188) Accurately ripped
02 [eee4148f] (022/187) Accurately ripped
03 [2e6d15a5] (022/185) Accurately ripped
04 [f09f5fc6] (022/187) Accurately ripped
05 [7109361c] (021/186) Accurately ripped
06 [cad1f4e2] (022/187) Accurately ripped
07 [c5c35a1d] (021/185) Accurately ripped
08 [94e51681] (022/189) Accurately ripped
09 [18a02821] (022/189) Accurately ripped
10 [5d77ecfc] (020/186) Accurately ripped

Track Peak [ CRC32 ] [W/O NULL] [ LOG ]
– 99,9 [C16DC28D] [C168778C] CRC32
01 59,1 [362C8CB8] [5FBD19C6]
02 99,9 [40EEFF9D] [E7E92D8E]
03 99,9 [59041F18] [777DD1C0]
04 99,9 [5EE2BA98] [EE2DE567]
05 99,9 [78AD61C6] [9E337ACB]
06 99,9 [866372C1] [61CC1BA1]
07 99,9 [97993E59] [FA8FBA88]
08 94,0 [1127CC35] [2ACF89CF]
09 99,9 [AC9BACE5] [8B356BC2]
10 95,8 [C71426D6] [4FF7C2E0]


Supertramp - Crisis? What Crisis? (1975)

All thanks go to the original releaser

Supertramp in my Blog

Download Supertramp - Crisis? What Crisis? (1975):