Tags
Language
Tags

Supertramp - Free As A Bird (1987) Re-up

Posted By: v3122
Supertramp - Free As A Bird (1987) Re-up

Supertramp - Free As A Bird (1987)
EAC | Flac(Image) + Cue + Log & MP3 CBR 320Kbps
A&M 493 355-2 | EU | ~ 313 or 107 Mb | Scans(jpg) -> 123 Mb
Progressive Rock / Pop Rock | Remastered

Free as a Bird is the ninth studio album by the English rock band Supertramp, released in 1987.

The album was a turn of direction of sorts, with most of the songs stepping back from their progressive rock sound, employing synthesised dance beats and rhythms. Chief songwriter Rick Davies later recalled, "Free as a Bird was an experiment to try and be modern and build it up with computers and drum machines and have people come in one by one, which makes you lose the band spirit a little bit…

~ wiki
Supertramp - Free As A Bird (1987):

Supertramp - Free As A Bird (1987) Re-up

Tracklist:

01. It's Alright [0:05:01.17]
02. Not The Moment [0:04:37.12]
03. It Doesn't Matter [0:04:53.28]
04. Where I Stand [0:03:41.08]
05. Free As A Bird [0:04:25.48]
06. I'm Beggin' You [0:05:30.31]
07. You Never Can Tell With Friends [0:04:18.13]
08. Thing For You [0:04:00.08]
09. An Awful Thing To Waste [0:07:51.14]

Exact Audio Copy V1.0 beta 3 from 29. August 2011

EAC extraction logfile from 19. October 2017, 18:57

Supertramp / Free As A Bird

Used drive : PLEXTOR DVDR PX-L890SA Adapter: 3 ID: 1

Read mode : Secure
Utilize accurate stream : Yes
Defeat audio cache : Yes
Make use of C2 pointers : No

Read offset correction : 6
Overread into Lead-In and Lead-Out : No
Fill up missing offset samples with silence : Yes
Delete leading and trailing silent blocks : No
Null samples used in CRC calculations : Yes
Used interface : Native Win32 interface for Win NT & 2000

Used output format : User Defined Encoder
Selected bitrate : 768 kBit/s
Quality : High
Add ID3 tag : No
Command line compressor : C:\Program Files (x86)\Exact Audio Copy\Flac\flac.exe
Additional command line options : -V -8 -T "Date=%year%" -T "Genre=%genre%" %source%


TOC of the extracted CD

Track | Start | Length | Start sector | End sector
––––––––––––––––––––––––––––-
1 | 0:00.00 | 5:01.17 | 0 | 22591
2 | 5:01.17 | 4:37.12 | 22592 | 43378
3 | 9:38.29 | 4:53.28 | 43379 | 65381
4 | 14:31.57 | 3:41.08 | 65382 | 81964
5 | 18:12.65 | 4:25.48 | 81965 | 101887
6 | 22:38.38 | 5:30.31 | 101888 | 126668
7 | 28:08.69 | 4:18.13 | 126669 | 146031
8 | 32:27.07 | 4:00.08 | 146032 | 164039
9 | 36:27.15 | 7:51.14 | 164040 | 199378


Range status and errors

Selected range

Filename H:\MUSIC\1987. Supertramp - Free As A Bird (A&M 493 355-2, EU)\Supertramp - Free As A Bird.wav

Peak level 99.8 %
Extraction speed 8.3 X
Range quality 100.0 %
Test CRC 51670661
Copy CRC 51670661
Copy OK

No errors occurred


AccurateRip summary

Track 1 accurately ripped (confidence 13) [8ADAB47E] (AR v2)
Track 2 accurately ripped (confidence 13) [6AE7A1F6] (AR v2)
Track 3 accurately ripped (confidence 13) [9A283C68] (AR v2)
Track 4 accurately ripped (confidence 13) [A9264046] (AR v2)
Track 5 accurately ripped (confidence 13) [E9611BC3] (AR v2)
Track 6 accurately ripped (confidence 13) [6B3C8C43] (AR v2)
Track 7 accurately ripped (confidence 13) [FFB4C6B0] (AR v2)
Track 8 accurately ripped (confidence 13) [6BA94822] (AR v2)
Track 9 accurately ripped (confidence 13) [C2C528AB] (AR v2)

All tracks accurately ripped

End of status report

==== Log checksum B0AE2202355F7DE0D21AF56FCB3FE181621A1498639F36830FFAFF0456FAE70A ====


[CUETools log; Date: 19.10.2017 18:59:19; Version: 2.1.2a]
[CTDB TOCID: q_w95tzMFpALuPZHKluuwxb17Ko-] found.
[ CTDBID ] Status
[d2eca8b6] (15/17) Accurately ripped
[dd8c7732] (02/17) Differs in 180 samples @20:26:15
[AccurateRip ID: 000e841e-006a8db4-7a0a6209] found.
Track [ CRC ] Status
01 [f2cbad2b] (00/13) No match but offset
02 [2ff573f0] (00/13) No match but offset
03 [1d1ee453] (00/13) No match but offset
04 [df478134] (00/13) No match but offset
05 [da9292ad] (00/13) No match but offset
06 [26c6a8d0] (00/13) No match but offset
07 [7ca33e34] (00/13) No match but offset
08 [a653fb49] (00/13) No match but offset
09 [fba92cb7] (00/13) No match but offset
AccurateRip v2:
01 [8adab47e] (13/13) Accurately ripped
02 [6ae7a1f6] (13/13) Accurately ripped
03 [9a283c68] (13/13) Accurately ripped
04 [a9264046] (13/13) Accurately ripped
05 [e9611bc3] (13/13) Accurately ripped
06 [6b3c8c43] (13/13) Accurately ripped
07 [ffb4c6b0] (13/13) Accurately ripped
08 [6ba94822] (13/13) Accurately ripped
09 [c2c528ab] (13/13) Accurately ripped

Track Peak [ CRC32 ] [W/O NULL] [ LOG ]
– 99,8 [51670661] [910403D2] CRC32
01 99,8 [96BA82D7] [CE5BEEAF]
02 99,8 [908F2DB2] [E33A2662]
03 99,8 [2238162F] [4D2432B3]
04 99,8 [7B0B369B] [7AB54FF0]
05 99,8 [A300B5DE] [10054E9D]
06 99,8 [FDAAA906] [F9E917A0]
07 99,8 [1E42D1FA] [3015FD26]
08 99,8 [DE9DFCD7] [37CFCD07]
09 99,8 [34FB0634] [1F2A1AC9]


Supertramp - Free As A Bird (1987) Re-up

All thanks go to snakesharmer

Supertramp in my Blog

Download Supertramp - Free As A Bird (1987):