Tags
Language
Tags

Supertramp - Paris (1980)

Posted By: v3122
Supertramp - Paris (1980)

Supertramp - Paris (1980)
EAC | Flac(Image) + Cue + Log & MP3 CBR 320Kbps
2CD | 1997 | A&M 396 702-2 | France | ~ 588 or 213 Mb | Artwork -> 147 Mb
Progressive Rock | Remastered

Recorded in the wake of the global success of Breakfast in America, Paris is a competent live album from Supertramp.

~ allmusic
Supertramp - Paris (1980):

Supertramp - Paris (1980)

Tracklist CD1:

01. School [0:05:42.55]
02. Ain’t Nobody but Me [0:05:25.10]
03. The Logical Song [0:03:57.25]
04. Bloody Well Right [0:07:23.47]
05. Breakfast in America [0:02:57.18]
06. You Started Laughing [0:04:03.10]
07. Hide in Your Shell [0:06:56.60]
08. From Now On [0:07:07.47]

Exact Audio Copy V1.6 from 23. October 2020

EAC extraction logfile from 16. May 2021, 20:02

Supertramp / Paris Cd1

Used drive : Optiarc DVD RW AD-7263S Adapter: 1 ID: 0

Read mode : Secure
Utilize accurate stream : Yes
Defeat audio cache : Yes
Make use of C2 pointers : No

Read offset correction : 48
Overread into Lead-In and Lead-Out : No
Fill up missing offset samples with silence : Yes
Delete leading and trailing silent blocks : No
Null samples used in CRC calculations : Yes
Used interface : Native Win32 interface for Win NT & 2000

Used output format : User Defined Encoder
Selected bitrate : 1024 kBit/s
Quality : High
Add ID3 tag : No
Command line compressor : C:\Program Files (x86)\Exact Audio Copy\Flac\flac.exe
Additional command line options : -V -8 -T "Date=%year%" -T "Genre=%genre%" %source%


TOC of the extracted CD

Track | Start | Length | Start sector | End sector
––––––––––––––––––––––––––––-
1 | 0:00.00 | 5:42.55 | 0 | 25704
2 | 5:42.55 | 5:25.10 | 25705 | 50089
3 | 11:07.65 | 3:57.25 | 50090 | 67889
4 | 15:05.15 | 7:23.47 | 67890 | 101161
5 | 22:28.62 | 2:57.18 | 101162 | 114454
6 | 25:26.05 | 4:03.10 | 114455 | 132689
7 | 29:29.15 | 6:56.60 | 132690 | 163949
8 | 36:26.00 | 7:07.47 | 163950 | 196021


Range status and errors

Selected range

Filename H:\AUDIO\MUSIC\Supertramp\1980. Supertramp - Paris (A&M 396 702-2, France, RM)\Disc1\Supertramp - Paris Cd1.wav

Peak level 100.0 %
Extraction speed 3.7 X
Range quality 100.0 %
Test CRC 4548521A
Copy CRC 4548521A
Copy OK

No errors occurred


AccurateRip summary

Track 1 accurately ripped (confidence 41) [A4B9E90B] (AR v2)
Track 2 accurately ripped (confidence 41) [A0238940] (AR v2)
Track 3 accurately ripped (confidence 42) [49F5B4AF] (AR v2)
Track 4 accurately ripped (confidence 42) [97289042] (AR v2)
Track 5 accurately ripped (confidence 43) [53399471] (AR v2)
Track 6 accurately ripped (confidence 43) [AF316869] (AR v2)
Track 7 accurately ripped (confidence 43) [B61A4485] (AR v2)
Track 8 accurately ripped (confidence 41) [BD6CB5E5] (AR v2)

All tracks accurately ripped

End of status report

==== Log checksum 5AC3CDCDAE09BE9C113569B175030F3A1B730B59A4F58233E89AB7B72A739C2E ====


[CUETools log; Date: 18.07.2021 13:29:31; Version: 2.1.4]
[AccurateRip ID: 000cfffc-00568609-6e0a3508] found.
Track [ CRC | V2 ] Status
01 [1123b978|a4b9e90b] (028+042/147) Accurately ripped
02 [ee1abb21|a0238940] (028+042/147) Accurately ripped
03 [7d203d1f|49f5b4af] (028+043/148) Accurately ripped
04 [e06f3dd1|97289042] (027+043/146) Accurately ripped
05 [b8b6645e|53399471] (028+044/148) Accurately ripped
06 [e0a9aaa8|af316869] (028+044/148) Accurately ripped
07 [0edeac75|b61a4485] (028+044/148) Accurately ripped
08 [b6d62ff9|bd6cb5e5] (026+042/143) Accurately ripped
Offsetted by 124:
01 [48eb62a9] (031/147) Accurately ripped
02 [9c8f4bbe] (031/147) Accurately ripped
03 [9fa1ac95] (031/148) Accurately ripped
04 [afa9d599] (030/146) Accurately ripped
05 [985087a3] (030/148) Accurately ripped
06 [3e623fd0] (030/148) Accurately ripped
07 [58b3a71f] (030/148) Accurately ripped
08 [cfdc5796] (029/143) Accurately ripped
Offsetted by -1432:
01 [acaf1856] (000/147) No match (V2 was not tested)
02 [683de193] (000/147) No match (V2 was not tested)
03 [a67d968d] (000/148) No match (V2 was not tested)
04 [41028de1] (000/146) No match (V2 was not tested)
05 [05aaaf7f] (000/148) No match (V2 was not tested)
06 [9313baab] (000/148) No match (V2 was not tested)
07 [2c01a0e1] (000/148) No match (V2 was not tested)
08 [125474b6] (000/143) No match (V2 was not tested)

Track Peak [ CRC32 ] [W/O NULL] [ LOG ]
– 99,9 [4548521A] [5B4E96EE] CRC32
01 99,9 [8AFE338B] [F9106925]
02 99,9 [7E0B69CB] [76A406D5]
03 99,9 [CA5485B5] [EA9F94B6]
04 99,9 [3E4F2C27] [A487377B]
05 99,9 [3F7A50BF] [955299A8]
06 99,9 [4963F5FD] [33EB42D3]
07 99,9 [46015BE6] [16C1AD27]
08 99,9 [BD4C27BF] [29D36071]


Supertramp - Paris (1980)

Tracklist CD2:

01. Dreamer [0:03:45.05]
02. Rudy [0:07:11.42]
03. A Soapbox Opera [0:04:51.23]
04. Asylum [0:06:53.10]
05. Take the Long Way Home [0:04:57.40]
06. Fool’s Overture [0:11:02.35]
07. Two of Us [0:01:21.27]
08. Crime of the Century [0:06:31.18]

Exact Audio Copy V1.6 from 23. October 2020

EAC extraction logfile from 17. July 2021, 12:58

Supertramp / Paris Cd2

Used drive : PLEXTOR DVDR PX-L890SA Adapter: 1 ID: 1

Read mode : Secure
Utilize accurate stream : Yes
Defeat audio cache : Yes
Make use of C2 pointers : No

Read offset correction : 6
Overread into Lead-In and Lead-Out : No
Fill up missing offset samples with silence : Yes
Delete leading and trailing silent blocks : No
Null samples used in CRC calculations : Yes
Used interface : Native Win32 interface for Win NT & 2000

Used output format : User Defined Encoder
Selected bitrate : 1024 kBit/s
Quality : High
Add ID3 tag : No
Command line compressor : C:\Program Files (x86)\Exact Audio Copy\Flac\flac.exe
Additional command line options : -V -8 -T "Date=%year%" -T "Genre=%genre%" %source%


TOC of the extracted CD

Track | Start | Length | Start sector | End sector
––––––––––––––––––––––––––––-
1 | 0:00.00 | 3:45.05 | 0 | 16879
2 | 3:45.05 | 7:11.42 | 16880 | 49246
3 | 10:56.47 | 4:51.23 | 49247 | 71094
4 | 15:47.70 | 6:53.10 | 71095 | 102079
5 | 22:41.05 | 4:57.40 | 102080 | 124394
6 | 27:38.45 | 11:02.35 | 124395 | 174079
7 | 38:41.05 | 1:21.27 | 174080 | 180181
8 | 40:02.32 | 6:31.18 | 180182 | 209524


Range status and errors

Selected range

Filename H:\AUDIO\MUSIC\Supertramp\1980. Supertramp - Paris (A&M 396 702-2, France, RM)\Disc2\Supertramp - Paris Cd2.wav

Peak level 100.0 %
Extraction speed 7.5 X
Range quality 100.0 %
Test CRC 4C08F5B5
Copy CRC 4C08F5B5
Copy OK

No errors occurred


AccurateRip summary

Track 1 accurately ripped (confidence 53) [22E4C119] (AR v2)
Track 2 accurately ripped (confidence 54) [9BB5FD13] (AR v2)
Track 3 accurately ripped (confidence 54) [C113B9C9] (AR v2)
Track 4 accurately ripped (confidence 54) [32CE49DD] (AR v2)
Track 5 accurately ripped (confidence 54) [B574322E] (AR v2)
Track 6 accurately ripped (confidence 52) [5CD2E354] (AR v2)
Track 7 accurately ripped (confidence 53) [F2967CB1] (AR v2)
Track 8 accurately ripped (confidence 54) [BDF54E48] (AR v2)

All tracks accurately ripped

End of status report

==== Log checksum 0C53195FFF938EE1448204E75609269570902B08BCF6A746C8548EA53C73D12D ====


[CUETools log; Date: 18.07.2021 13:29:38; Version: 2.1.4]
[AccurateRip ID: 000e26fc-005fa5e9-640ae908] found.
Track [ CRC | V2 ] Status
01 [9ba69d49|22e4c119] (038+053/151) Accurately ripped
02 [708734fa|9bb5fd13] (038+054/150) Accurately ripped
03 [7531d905|c113b9c9] (037+054/151) Accurately ripped
04 [5560bc7a|32ce49dd] (038+054/152) Accurately ripped
05 [17a4b68f|b574322e] (038+054/152) Accurately ripped
06 [461f510f|5cd2e354] (038+052/150) Accurately ripped
07 [29d9d56c|f2967cb1] (038+053/151) Accurately ripped
08 [dea9f72d|bdf54e48] (037+054/150) Accurately ripped
Offsetted by -1560:
01 [87fbdb82] (002/151) Accurately ripped
02 [a852bf07] (002/150) Accurately ripped
03 [529646f3] (002/151) Accurately ripped
04 [52c72df0] (002/152) Accurately ripped
05 [bd8d278c] (002/152) Accurately ripped
06 [36b54661] (002/150) Accurately ripped
07 [14811782] (002/151) Accurately ripped
08 [a3a23865] (002/150) Accurately ripped
Offsetted by 1082:
01 [c8fad590] (022/151) Accurately ripped
02 [86abca6f] (022/150) Accurately ripped
03 [77d45069] (022/151) Accurately ripped
04 [7700fa39] (022/152) Accurately ripped
05 [076cdb82] (022/152) Accurately ripped
06 [5ec0699c] (022/150) Accurately ripped
07 [7010ac0e] (022/151) Accurately ripped
08 [4cbfd94e] (021/150) Accurately ripped

Track Peak [ CRC32 ] [W/O NULL] [ LOG ]
– 100,0 [4C08F5B5] [69EB55C0] CRC32
01 99,9 [F0B6D8D4] [7873E894]
02 99,9 [CB7166A8] [ABC12A28]
03 99,9 [492264D0] [1516C6DC]
04 99,9 [C214C43F] [4E01D43C]
05 100,0 [0B216A81] [E82B7F56]
06 99,9 [21E219FF] [F24B790A]
07 74,9 [166DC956] [11668F5E]
08 100,0 [6E00287A] [EE60C9AE]


Supertramp - Paris (1980)

All thanks go to the original releaser

Supertramp in my Blog

Download Supertramp - Paris (1980):