Tags
Language
Tags

T. Rex - 6 Albums. Remastered, Bonus Tracks (1972 - 1977) [1994, Edsel Records]

Posted By: v3122
T. Rex - 6 Albums. Remastered, Bonus Tracks (1972 - 1977) [1994, Edsel Records]

T. Rex - 6 Albums. Remastered, Bonus Tracks (1972 - 1977) [1994, Edsel Records]
Rock | EAC Rip | Flac(Image) + Cue + Log & MP3 CBR 320Kbps
1994 | Edsel Records, EDCD390~95 | ~ 2342 or 900 Mb
Scans (JPG) -> 427 Mb

Initially a British folk-rock combo called Tyrannosaurus Rex, T. Rex was the primary force in glam rock, thanks to the creative direction of guitarist/vocalist Marc Bolan (born Marc Feld). Bolan created a deliberately trashy form of rock & roll that was proud of its own disposability. T. Rex's music borrowed the underlying sexuality of early rock & roll, adding dirty, simple grooves and fat distorted guitars, as well as an overarching folky/hippie spirituality that always came through the clearest on ballads. While most of his peers concentrated on making cohesive albums, Bolan kept the idea of a three-minute pop single alive in the early '70s. In Britain, he became a superstar, sparking a period of "T. Rextacy" among the pop audience with a series of Top Ten hits, including four number one singles. Over in America, the group only had one major hit – the Top Ten "Bang a Gong (Get It On)" – before disappearing from the charts in 1973. T. Rex's popularity in the U.K. didn't begin to waver until 1975, yet they retained a devoted following until Marc Bolan's death in 1977. Over the next two decades, Bolan emerged as a cult figure and the music of T. Rex has proven quite influential on hard rock, punk, new wave, and alternative rock.

Following a career as a teenage model, Marc Bolan began performing music professionally in 1965, releasing his first single, "The Wizard," on Decca Records. Bolan joined the psychedelic folk-rock combo John's Children in 1967, appearing on three unsuccessful singles before the group disbanded later that year. Following the breakup, he formed the folk duo Tyrannosaurus Rex with percussionist Steve Peregrine Took. The duo landed a record deal with a subsidiary of EMI in February 1968, recording their debut album with producer Tony Visconti. "Debora," the group's first single, peaked at number 34 in May of that year, and their debut album, My People Were Fair and Had Sky in Their Hair…But Now They're Content to Wear Stars on Their Brow, reached number 15 shortly afterward. The duo released their second album, Prophets, Seers & Sages, the Angels of the Ages, in November of 1968.

By this time, Tyrannosaurus Rex was building a sizable underground following, which helped Bolan's book of poetry, The Warlock of Love, enter the British best-seller charts. In the summer of 1969, the duo released their third album, Unicorn, as well as the single "King of the Rumbling Spires," the first Tyrannosaurus Rex song to feature an electric guitar. Following an unsuccessful American tour that fall, Took left the band and was replaced by Mickey Finn. The new duo's first single did not chart, yet their first album, 1970's A Beard of Stars, reached number 21.

The turning point in Bolan's career came in October of 1970, when he shortened the group's name to T. Rex and released "Ride a White Swan," a fuzz-drenched single driven by a rolling backbeat. "Ride a White Swan" became a major hit in the U.K., climbing all the way to number two. The band's next album, T. Rex, peaked at number 13 and stayed on the charts for six months. Encouraged by the results, Bolan expanded T. Rex to a full band, adding bassist Steve Currie and drummer Bill Legend (born Bill Fifield). The new lineup recorded "Hot Love," which spent six weeks at number one in early 1971. That summer, T. Rex released "Get It On" (retitled "Bang a Gong (Get It On)" in the U.S.), which became their second straight U.K. number one; the single would go on to be their biggest international hit, reaching number ten in the U.S. in 1972. Electric Warrior, the first album recorded by the full band, was released in the fall of 1971; it was number one for six weeks in Britain and cracked America's Top 40.

By now, "T. Rextacy" was in full swing in England, as the band had captured the imaginations of both teenagers and the media with its sequined, heavily made-up appearance; the image of Marc Bolan in a top hat, feather boa, and platform shoes, performing "Get It On" on the BBC became as famous as his music. At the beginning of 1972, T. Rex signed with EMI, setting up a distribution deal for Bolan's own T.Rex Wax Co. record label. "Telegram Sam," the group's first EMI single, became their third number one single.

"Metal Guru" also hit number one, spending four weeks at the top of the chart. The Slider, released in the summer of 1972, shot to number one upon its release, allegedly selling 100,000 copies in four days; the album was also T. Rex's most successful American release, reaching number 17. Appearing in the spring of 1973, Tanx was another Top Five hit for T. Rex; the singles "20th Century Boy" and "The Groover" soon followed it to the upper ranks of the charts. However, those singles would prove to be the band's last two Top Ten hits. In the summer of 1973, rhythm guitarist Jack Green joined the band, as did three backup vocalists, including the American soul singer Gloria Jones; Jones would soon become Bolan's girlfriend. At the beginning of 1974, drummer Bill Legend left the group and was replaced by Davy Lutton, as Jones became the group's keyboardist.

In early 1974, the single "Teenage Dream" was the first record to be released under the name Marc Bolan and T. Rex. The following album, Zinc Alloy and the Hidden Riders of Tomorrow, was the last Bolan recorded with Tony Visconti. Throughout the year, T. Rex's popularity rapidly declined – by the time "Zip Gun Boogie" was released in November, it could only reach number 41. Finn and Green left the group at the end of the year, while keyboardist Dino Dins joined. The decline of T. Rex's popularity was confirmed when 1975's Bolan's Zip Gun failed to chart. Bolan took the rest of the year off, returning in the spring of 1976 with Futuristic Dragon, which peaked at number 50. Released in the summer of 1976, "I Love to Boogie," a disco-flavored three-chord thumper, became Bolan's last Top 20 hit.

Bolan released Dandy in the Underworld in the spring of 1977; it was a modest hit, peaking at number 26. While "The Soul of My Suit" reached number 42 on the charts, T. Rex's next two singles failed to chart. Sensing it was time for a change of direction, Bolan began expanding his horizons in August. In addition to contributing a weekly column for Record Mirror, he hosted his own variety television show, Marc. Featuring guest appearances by artists like David Bowie and Generation X, Marc helped restore Bolan's hip image. Signing with RCA Records, the guitarist formed a new band with bassist Herbie Flowers and drummer Tony Newman, yet he never was able to record with the group. While driving home from a London club with Bolan, Gloria Jones lost control of her car, smashing into a tree. Marc Bolan, riding in the passenger's seat of the car, was killed instantly.

While T. Rex's music was intended to be disposable, it has proven surprisingly influential over the years. Hard rock and heavy metal bands borrowed the group's image, as well as the pounding insistence of their guitars. Punk bands may have discarded the high heels, feather boas, and top hats, yet they adhered to the simple three-chord structures and pop aesthetics that made the band popular.

by Stephen Thomas Erlewine, AMG

T. Rex - 6 Albums. Remastered, Bonus Tracks (1972 - 1977) [1994, Edsel Records]

Марк Болан (Марк Фелд, р. 30 сентября 1947, Лондон) начал профессионально заниматься музыкой еще в 1965 году, выпустив свой первый сингл "The Wizard". Затем он присоединился к психоделическому фолк-роковому проекту "John's Children", просуществовавшему недолгое время. После распада этой группы Болан организовал дуэт "Tyrannosaurus Rex" в компании с перкуссионистом Стивом Перегрином Туком. Заключив контракт с "EMI", парни приступили к записи дебютного альбома "My People Were Fair And Had Sky In Their Hair But Now They're Content To Wear Stars On Their Brows". Неожиданный успех этой пластинки, а также сопуствующего сингла "Debora" заставил музыкантов работать интенсивнее и к осени 1968 года уже был готов второй альбом "Prophets, Seers, And Sages, The Angels Of The Ages". Этот релиз также как и первый был чисто акустическим, однако уже на третьем диске группы появилась электрогитара. После неудачного американского турне Тука сменил Микки Финн.

В начале 1970 года обновленная команда выпустила "A Beard Of Stars", поднявшуюся на 21-е место в британских хит-парадах. Последний трек с гитарой в духе Хендрикса давал почуствовать зарождение нового саунда группы. В конце 1970 года группа окончательно переключилась на электрогитары и сократила свое название до "T. Rex". Дуэт выпустил сингл "Ride A White Swan", занявший второе место в английских чартах.

Вскоре состав команды был расширен до четырех человек, в "T. Rex" появились басист Стив Карри и ударник Билл Легенд (Билл Фифилд). Обновленный коллектив выпустил сингл "Hot Love", на шесть недель возглавивший британские хит-парады. Летом 1971 года группа повторила успех с "Get It On", вошедшей также в американский Топ 10 и ставшей международным хитом. С выходом "Electric Warrior" началась повальная "тирексомания". Ажиотаж подогревался сценическим имиджем Болана, появлявшемся на концертах в боа, высокой шляпе и туфлях на толстенной платформе. В 1972 году Марк основал свой собственный лейбл "T.Rex Wax Co". Первым релизом, выпущенным этим лейблом стал сингл "Telegram Sam", снова занявший первую строчку чартов. В марте "T. Rex" далвали концерты перед многотысячной толпой фанов, собравшихся на лондонском стадионе Уэмбли. Впоследствии видеозаписи с этих шоу вошли в фильм Ринго Старра "Born To Boogie".

Альбом "Slider" вышедший летом 1972 года сразу же ворвался на вершину английских хит-парадов, а за четыре первых дня было продано 100000 экземпляров этой пластинки. Диск 1973 года "Tanx" имел несколько непривычный для "T. Rex" саунд, по словам Болана это был госпел-альбом. Пластинка неплохо продавалась, но имела меньший успех чем ее предшественники.

Летом 1973-го в группе появился новый гитарист Джек Грин, а также три бэк-вокалистки, одна из которых, Глория Джонс стала подружкой Болана. В начале 1974 года из команды свалил Билл Легенд, а его место за ударными занял Дэйви Лютон. Глория Джонс взялась за клавишные. Альбом "Zinc Alloy and the Hidden Riders of Tomorrow" стал последней записью "T. Rex" с продюсером Тони Висконти, поскольку того не устраивало новое музыкальное направление группы. На следующий год популярность команды стала резко падать. Коллектив покинули Финн и Грин, а в составе появился клавишник Дино Динс. Скрываясь от английских налогов Болан в 1975 году перебрался в Америку, где увлекся алкоголем и наркотиками. Однако с рождением сына он переборол дурные привычки и верулся к деятельности.

Альбом 1976 года "Futuristic Dragon" смог подняться лишь до 50 места в чартах. Спустя некоторое время команду покинул Стив Карри. Диск "Dandy in the Underworld" имел больший успех, чем его предшественник и популярность "T. Rex" снова начала набирать обороты. К тому времени состав группы практически полностью поменялся: кроме Болана в него входили басист Херби Флауэрс и ударник Тони Ньюмен. Однако, дальнейшим планам Марка не суждено было сбыться - 16 сентября 1977 года автомобиль, которым управляла его жена врезался в дерево, в результате чего Болан, находившийся на пассажирском сиденье, погиб.

~ muzdb
T. Rex - 6 Albums. Remastered with Bonus Tracks (1972 - 1977) [1994, Edsel Records]:

T. Rex - 6 Albums. Remastered, Bonus Tracks (1972 - 1977) [1994, Edsel Records]

T. Rex - The Slider (1972)
Rock | EAC Rip | Flac(Image) + Cue + Log) & MP3 CBR 320Kbps
1994 | Edsel Records, EDCD390 | ~ 409 or 148 Mb

T. Rex - 6 Albums. Remastered, Bonus Tracks (1972 - 1977) [1994, Edsel Records]

Tracklist:

1. Metal Guru (2:29)
2. Mystic Lady (3:14)
3. Rock On (3:26)
4. The Slider (3:22)
5. Baby Boomerang (2:16)
6. Spaceball Ricochet (3:36)
7. Buick Mackane (3:34)
8. Telegram Sam (3:45)
9. Rabbit Fighter (3:55)
10. Baby Strange (3:06)
11. Ballrooms Of Mars (4:07)
12. Chariot Choogle (2:45)
13. Main Man (4:20)

Bonus Tracks:

14. Cadillac (3:53)
15. Thunderwing (3:46)
16. Lady (2:12)

Exact Audio Copy V1.0 beta 3 from 29. August 2011

EAC extraction logfile from 12. October 2011, 18:27

T.Rex / The Slider (Demon EDCD390)

Used drive : ASUS DRW-24B3ST Adapter: 2 ID: 0

Read mode : Secure
Utilize accurate stream : Yes
Defeat audio cache : Yes
Make use of C2 pointers : No

Read offset correction : 6
Overread into Lead-In and Lead-Out : No
Fill up missing offset samples with silence : Yes
Delete leading and trailing silent blocks : No
Null samples used in CRC calculations : Yes
Used interface : Native Win32 interface for Win NT & 2000

Used output format : User Defined Encoder
Selected bitrate : 1024 kBit/s
Quality : High
Add ID3 tag : No
Command line compressor : C:\Program Files\Exact Audio Copy\FLAC\FLAC.EXE
Additional command line options : -6 -V -T "ARTIST=%artist%" -T "TITLE=%title%" -T "ALBUM=%albumtitle%" -T "DATE=%year%" -T "TRACKNUMBER=%tracknr%" -T "GENRE=%genre%" -T "COMMENT=%comment%" -T "BAND=%albuminterpret%" -T "COMPOSER=%composer%" %haslyrics%–tag-from-file=LYRICS="%lyricsfile%"%haslyrics% -T "DISCNUMBER=%cdnumber%" -T "TOTALDISCS=%totalcds%" -T "TOTALTRACKS=%numtracks%" %hascover%–picture="%coverfile%"%hascover% %source% -o %dest%


TOC of the extracted CD

Track | Start | Length | Start sector | End sector
––––––––––––––––––––––––––––-
1 | 0:00.32 | 2:29.53 | 32 | 11259
2 | 2:30.10 | 3:14.17 | 11260 | 25826
3 | 5:44.27 | 3:26.38 | 25827 | 41314
4 | 9:10.65 | 3:22.47 | 41315 | 56511
5 | 12:33.37 | 2:16.30 | 56512 | 66741
6 | 14:49.67 | 3:36.53 | 66742 | 82994
7 | 18:26.45 | 3:34.32 | 82995 | 99076
8 | 22:01.02 | 3:45.58 | 99077 | 116009
9 | 25:46.60 | 3:55.45 | 116010 | 133679
10 | 29:42.30 | 3:06.37 | 133680 | 147666
11 | 32:48.67 | 4:07.53 | 147667 | 166244
12 | 36:56.45 | 2:45.47 | 166245 | 178666
13 | 39:42.17 | 4:20.25 | 178667 | 198191
14 | 44:02.42 | 3:53.30 | 198192 | 215696
15 | 47:55.72 | 3:46.65 | 215697 | 232711
16 | 51:42.62 | 2:12.05 | 232712 | 242616


Range status and errors

Selected range

Filename H:\T. Rex\1972 - The Slider\Cd\T.Rex - The Slider (Demon EDCD390).wav

Peak level 100.0 %
Extraction speed 7.8 X
Range quality 100.0 %
Test CRC ABAD15DE
Copy CRC ABAD15DE
Copy OK

No errors occurred


AccurateRip summary

Track 1 accurately ripped (confidence 7) [1C500E2C] (AR v1)
Track 2 accurately ripped (confidence 7) [F332B29D] (AR v1)
Track 3 accurately ripped (confidence 7) [C5A3471F] (AR v1)
Track 4 accurately ripped (confidence 7) [909D3089] (AR v1)
Track 5 accurately ripped (confidence 7) [E8489E4E] (AR v1)
Track 6 accurately ripped (confidence 7) [52514493] (AR v1)
Track 7 accurately ripped (confidence 7) [7FD2CBF0] (AR v1)
Track 8 accurately ripped (confidence 7) [2B302BC5] (AR v1)
Track 9 accurately ripped (confidence 7) [484F331E] (AR v1)
Track 10 accurately ripped (confidence 7) [A2DD8E12] (AR v1)
Track 11 accurately ripped (confidence 7) [6A12B7E9] (AR v1)
Track 12 accurately ripped (confidence 7) [77CB5445] (AR v1)
Track 13 accurately ripped (confidence 7) [EBEAFD89] (AR v1)
Track 14 accurately ripped (confidence 7) [F89C48A8] (AR v1)
Track 15 accurately ripped (confidence 7) [60D19389] (AR v1)
Track 16 accurately ripped (confidence 7) [75CAE378] (AR v1)

All tracks accurately ripped

End of status report

==== Log checksum 3615A8EF6846F57DFD5DB8825A082A43F67868320BFECEB8A7B15A0598D0B089 ====

AUDIOCHECKER v2.0 beta (build 457) - by Dester - opdester@freemail.hu
~~~~~~~~~~~~~~~~~~~~~~~~~~~~~~~~~~
-=== DO NOT EDIT THIS FILE! ===-

Path: …\T. Rex - 1972 - The Slider (Demon EDCD390)

1 -=- T.Rex - The Slider (Demon EDCD390).flac -=- CDDA (100%)

178611924

Verification date: 26.10.2011 13:06:16]
[Disc ID: 001ec00f-0175e1dc-de0ca210]
Pregap length 00:00:32.
Track [ CRC ] Status
01 [1c500e2c] (07/85) Accurately ripped as in pressing(s) #5
02 [f332b29d] (07/86) Accurately ripped as in pressing(s) #5
03 [c5a3471f] (07/85) Accurately ripped as in pressing(s) #5
04 [909d3089] (07/86) Accurately ripped as in pressing(s) #5
05 [e8489e4e] (07/84) Accurately ripped as in pressing(s) #5
06 [52514493] (07/85) Accurately ripped as in pressing(s) #5
07 [7fd2cbf0] (07/85) Accurately ripped as in pressing(s) #5
08 [2b302bc5] (07/86) Accurately ripped as in pressing(s) #5
09 [484f331e] (07/84) Accurately ripped as in pressing(s) #4
10 [a2dd8e12] (07/85) Accurately ripped as in pressing(s) #4
11 [6a12b7e9] (07/84) Accurately ripped as in pressing(s) #4
12 [77cb5445] (07/84) Accurately ripped as in pressing(s) #4
13 [ebeafd89] (07/84) Accurately ripped as in pressing(s) #4
14 [f89c48a8] (07/82) Accurately ripped as in pressing(s) #4
15 [60d19389] (07/83) Accurately ripped as in pressing(s) #4
16 [75cae378] (07/83) Accurately ripped as in pressing(s) #4
Offsetted by -809:
01 [f4e6b2e9] (04/85) Accurately ripped as in pressing(s) #7
02 [3cee656d] (04/86) Accurately ripped as in pressing(s) #7
03 [7ddb47fd] (04/85) Accurately ripped as in pressing(s) #7
04 [c7030124] (04/86) Accurately ripped as in pressing(s) #7
05 [9d2d9608] (04/84) Accurately ripped as in pressing(s) #7
06 [cca8b58b] (04/85) Accurately ripped as in pressing(s) #7
07 [efebaa7d] (04/85) Accurately ripped as in pressing(s) #7
08 [67a7bba0] (04/86) Accurately ripped as in pressing(s) #7
09 [b4b82aa4] (04/84) Accurately ripped as in pressing(s) #7
10 [903d1045] (04/85) Accurately ripped as in pressing(s) #7
11 [41e16c07] (04/84) Accurately ripped as in pressing(s) #7
12 [6c2424f4] (04/84) Accurately ripped as in pressing(s) #7
13 [24cf6484] (04/84) Accurately ripped as in pressing(s) #7
14 [64d6081a] (04/82) Accurately ripped as in pressing(s) #7
15 [c9c3e35c] (04/83) Accurately ripped as in pressing(s) #7
16 [aa8ec173] (04/83) Accurately ripped as in pressing(s) #7
Offsetted by 81:
01 [4e247e27] (02/85) Accurately ripped as in pressing(s) #10
02 [f182f34d] (02/86) Accurately ripped as in pressing(s) #10
03 [0c702572] (02/85) Accurately ripped as in pressing(s) #9
04 [152e7515] (02/86) Accurately ripped as in pressing(s) #10
05 [3c599164] (02/84) Accurately ripped as in pressing(s) #10
06 [55c324c3] (02/85) Accurately ripped as in pressing(s) #10
07 [2d669d9b] (02/85) Accurately ripped as in pressing(s) #10
08 [f09add72] (02/86) Accurately ripped as in pressing(s) #10
09 [d678e408] (02/84) Accurately ripped as in pressing(s) #10
10 [61bcf1f7] (02/85) Accurately ripped as in pressing(s) #10
11 [89445824] (02/84) Accurately ripped as in pressing(s) #10
12 [065ab8a5] (02/84) Accurately ripped as in pressing(s) #10
13 [3461e316] (02/84) Accurately ripped as in pressing(s) #10
14 [6deec9e6] (02/82) Accurately ripped as in pressing(s) #10
15 [c1448c7e] (02/83) Accurately ripped as in pressing(s) #10
16 [28fe7a05] (02/83) Accurately ripped as in pressing(s) #10
Offsetted by 92:
01 [05e5b020] (18/85) Accurately ripped as in pressing(s) #2
02 [630f6ddd] (18/86) Accurately ripped as in pressing(s) #2
03 [cff25b0b] (18/85) Accurately ripped as in pressing(s) #2
04 [82c1a781] (18/86) Accurately ripped as in pressing(s) #2
05 [75f1bc33] (18/84) Accurately ripped as in pressing(s) #2
06 [63be094e] (18/85) Accurately ripped as in pressing(s) #2
07 [93fc4524] (18/85) Accurately ripped as in pressing(s) #2
08 [5d966431] (18/86) Accurately ripped as in pressing(s) #2
09 [b5b7f863] (18/84) Accurately ripped as in pressing(s) #2
10 [2491fa91] (18/85) Accurately ripped as in pressing(s) #2
11 [106e9c53] (18/84) Accurately ripped as in pressing(s) #2
12 [2bf6676f] (18/84) Accurately ripped as in pressing(s) #2
13 [c948f275] (18/84) Accurately ripped as in pressing(s) #2
14 [7ddd8c70] (18/82) Accurately ripped as in pressing(s) #2
15 [b514f3d5] (18/83) Accurately ripped as in pressing(s) #2
16 [6d93b464] (18/83) Accurately ripped as in pressing(s) #2

Track [ CRC32 ] [W/O NULL] [ LOG ]
– [ABAD15DE] [3509D3BC] CRC32
01 [A64001B4] [D0CF9494]
02 [37187ED1] [008FA48E]
03 [AB06AEA2] [C4129ADF]
04 [7ED9DE1E] [85FF5668]
05 [0FCF4B53] [02341A62]
06 [9F953209] [5A1F8E85]
07 [1625C1A0] [60CDF997]
08 [3315A13C] [48F77164]
09 [D7E0E2DA] [5BFCFAA0]
10 [323291D6] [E9355016]
11 [AD5C6CB7] [923AF8CA]
12 [88227D47] [244813E8]
13 [3D70FF24] [48AA7FAD]
14 [5E26B029] [69390FBB]
15 [F5DF7B1E] [43180232]
16 [5E693D75] [919083BB]

==============

T. Rex - 6 Albums. Remastered, Bonus Tracks (1972 - 1977) [1994, Edsel Records]

T. Rex - Tanx (1973)
Rock | EAC Rip | Flac(Image) + Cue + Log & MP3 CBR 320Kbps
1994 | Edsel Records, EDCD391 | ~ 401 or 154 Mb

T. Rex - 6 Albums. Remastered, Bonus Tracks (1972 - 1977) [1994, Edsel Records]

Tracklist:

1. Tenement Lady (2:55)
2. Rapids (2:49)
3. Mister Mister (3:30)
4. Broken-Hearted Blues (2:03)
5. Shock Rock (1:43)
6. Country Honey (1:47)
7. Electric Slim And The Factory Hen (3:06)
8. Mad Donna (2:15)
9. Born To Boogie (2:04)
10. Life Is Strange (2:30)
11. The Street And Babe Shadow (2:17)
12. Highway Knees (2:34)
13. Left Hand Lukeand The Beggar Boys (5:22)

Bonus Tracks:

14. Children Of The Revolution (2:30)
15. Jitterbug Love (2:59)
16. Sunken Rags (2:54)
17. Solid Gold Easy Action (2:20)
18. Xmas Riff (0:11)
19. 20th Century Boy (3:41)
20. Free Angel (2:12)

Exact Audio Copy V1.0 beta 3 from 29. August 2011

EAC extraction logfile from 12. October 2011, 18:55

T. Rex / Tanx Demon EDCD391)

Used drive : ASUS DRW-24B3ST Adapter: 2 ID: 0

Read mode : Secure
Utilize accurate stream : Yes
Defeat audio cache : Yes
Make use of C2 pointers : No

Read offset correction : 6
Overread into Lead-In and Lead-Out : No
Fill up missing offset samples with silence : Yes
Delete leading and trailing silent blocks : No
Null samples used in CRC calculations : Yes
Used interface : Native Win32 interface for Win NT & 2000

Used output format : User Defined Encoder
Selected bitrate : 1024 kBit/s
Quality : High
Add ID3 tag : No
Command line compressor : C:\Program Files\Exact Audio Copy\FLAC\FLAC.EXE
Additional command line options : -6 -V -T "ARTIST=%artist%" -T "TITLE=%title%" -T "ALBUM=%albumtitle%" -T "DATE=%year%" -T "TRACKNUMBER=%tracknr%" -T "GENRE=%genre%" -T "COMMENT=%comment%" -T "BAND=%albuminterpret%" -T "COMPOSER=%composer%" %haslyrics%–tag-from-file=LYRICS="%lyricsfile%"%haslyrics% -T "DISCNUMBER=%cdnumber%" -T "TOTALDISCS=%totalcds%" -T "TOTALTRACKS=%numtracks%" %hascover%–picture="%coverfile%"%hascover% %source% -o %dest%


TOC of the extracted CD

Track | Start | Length | Start sector | End sector
––––––––––––––––––––––––––––-
1 | 0:00.32 | 2:55.13 | 32 | 13169
2 | 2:55.45 | 2:49.27 | 13170 | 25871
3 | 5:44.72 | 3:30.40 | 25872 | 41661
4 | 9:15.37 | 2:03.03 | 41662 | 50889
5 | 11:18.40 | 1:43.60 | 50890 | 58674
6 | 13:02.25 | 1:47.45 | 58675 | 66744
7 | 14:49.70 | 3:06.45 | 66745 | 80739
8 | 17:56.40 | 2:15.67 | 80740 | 90931
9 | 20:12.32 | 2:04.08 | 90932 | 100239
10 | 22:16.40 | 2:30.57 | 100240 | 111546
11 | 24:47.22 | 2:17.68 | 111547 | 121889
12 | 27:05.15 | 2:34.40 | 121890 | 133479
13 | 29:39.55 | 5:22.52 | 133480 | 157681
14 | 35:02.32 | 2:30.10 | 157682 | 168941
15 | 37:32.42 | 2:59.03 | 168942 | 182369
16 | 40:31.45 | 2:54.52 | 182370 | 195471
17 | 43:26.22 | 2:20.05 | 195472 | 205976
18 | 45:46.27 | 0:11.70 | 205977 | 206871
19 | 45:58.22 | 3:41.18 | 206872 | 223464
20 | 49:39.40 | 2:12.67 | 223465 | 233431


Range status and errors

Selected range

Filename H:\dafnaplus\1973 - Tankx\Cd\T. Rex - Tanx Demon EDCD391).wav

Peak level 100.0 %
Extraction speed 7.7 X
Range quality 100.0 %
Test CRC 12BC28DE
Copy CRC 12BC28DE
Copy OK

No errors occurred


AccurateRip summary

Track 1 accurately ripped (confidence 6) [1E547D5F] (AR v1)
Track 2 accurately ripped (confidence 6) [B0CAAA8F] (AR v1)
Track 3 accurately ripped (confidence 6) [6AC89188] (AR v1)
Track 4 accurately ripped (confidence 6) [41D5E1CC] (AR v1)
Track 5 accurately ripped (confidence 6) [CAFA6ACE] (AR v1)
Track 6 accurately ripped (confidence 6) [F411B8F6] (AR v1)
Track 7 accurately ripped (confidence 6) [A69F997F] (AR v1)
Track 8 accurately ripped (confidence 6) [A2DF4347] (AR v1)
Track 9 accurately ripped (confidence 6) [14034546] (AR v1)
Track 10 accurately ripped (confidence 6) [B1204931] (AR v1)
Track 11 accurately ripped (confidence 6) [9FC260C1] (AR v1)
Track 12 accurately ripped (confidence 6) [555E7F1A] (AR v1)
Track 13 accurately ripped (confidence 6) [ED7A25B7] (AR v1)
Track 14 accurately ripped (confidence 6) [9468A675] (AR v1)
Track 15 accurately ripped (confidence 6) [1B26DFC6] (AR v1)
Track 16 accurately ripped (confidence 6) [43FCF646] (AR v1)
Track 17 accurately ripped (confidence 6) [83A71447] (AR v1)
Track 18 accurately ripped (confidence 6) [11248151] (AR v1)
Track 19 accurately ripped (confidence 6) [723FBE68] (AR v1)
Track 20 accurately ripped (confidence 6) [0360A3CB] (AR v1)

All tracks accurately ripped

End of status report

==== Log checksum 108898E41757A0454523D9B1B62DF5959FA6EC9C86C8EAC90E75B80624C82FAB ====

AUDIOCHECKER v2.0 beta (build 457) - by Dester - opdester@freemail.hu
~~~~~~~~~~~~~~~~~~~~~~~~~~~~~~~~~~
-=== DO NOT EDIT THIS FILE! ===-

Path: …\T. Rex - 1973 - Tanx (Demon EDCD391)

1 -=- T. Rex - Tanx Demon EDCD391).flac -=- CDDA (100%)

81936820

[Verification date: 26.10.2011 13:07:17]
[Disc ID: 0025b0c7-0228cc30-290c2814]
Pregap length 00:00:32.
Track [ CRC ] Status
01 [1e547d5f] (06/34) Accurately ripped as in pressing(s) #3
02 [b0caaa8f] (06/34) Accurately ripped as in pressing(s) #3
03 [6ac89188] (06/33) Accurately ripped as in pressing(s) #3
04 [41d5e1cc] (06/33) Accurately ripped as in pressing(s) #3
05 [cafa6ace] (06/34) Accurately ripped as in pressing(s) #3
06 [f411b8f6] (06/34) Accurately ripped as in pressing(s) #3
07 [a69f997f] (06/34) Accurately ripped as in pressing(s) #3
08 [a2df4347] (06/33) Accurately ripped as in pressing(s) #3
09 [14034546] (06/33) Accurately ripped as in pressing(s) #3
10 [b1204931] (06/33) Accurately ripped as in pressing(s) #3
11 [9fc260c1] (06/33) Accurately ripped as in pressing(s) #3
12 [555e7f1a] (06/33) Accurately ripped as in pressing(s) #3
13 [ed7a25b7] (06/32) Accurately ripped as in pressing(s) #3
14 [9468a675] (06/31) Accurately ripped as in pressing(s) #3
15 [1b26dfc6] (06/31) Accurately ripped as in pressing(s) #3
16 [43fcf646] (06/33) Accurately ripped as in pressing(s) #3
17 [83a71447] (06/34) Accurately ripped as in pressing(s) #3
18 [11248151] (06/31) Accurately ripped as in pressing(s) #3
19 [723fbe68] (06/34) Accurately ripped as in pressing(s) #3
20 [0360a3cb] (06/33) Accurately ripped as in pressing(s) #3

Track [ CRC32 ] [W/O NULL] [ LOG ]
– [12BC28DE] [D9CDED33] CRC32
01 [729BD3C8] [C9DB0F52]
02 [7A06E4CF] [C46DE873]
03 [786B9AF3] [56656BA2]
04 [4D19E3BE] [07F0AA2C]
05 [E10CC5C7] [3E415430]
06 [002F41A1] [27BD12CD]
07 [A60E531C] [5092ACA7]
08 [2589B5D5] [A9F695AD]
09 [FD480E30] [374D4FC3]
10 [93A52FF5] [25B75A58]
11 [1ACF7B26] [C64BD4E3]
12 [13CD10C5] [D780E6E6]
13 [41A67F56] [C3E758F3]
14 [A1E80368] [D100BD96]
15 [70ACDD23] [F2899978]
16 [E978FE53] [3128D25E]
17 [76A05ECE] [1DF94BFE]
18 [81BD92BA] [7369C9F3]
19 [70692473] [1FC17850]
20 [0FDF7B43] [1DB61C01]

==============

T. Rex - 6 Albums. Remastered, Bonus Tracks (1972 - 1977) [1994, Edsel Records]

Marc Bolan & T.Rex - Zinc Alloy And The Hidden Riders Of Tomorrow (1974)
Rock | EAC Rip | Flac(Image) + Cue + Log & MP3 CBR 320Kbps
1994 | Edsel Records, EDCD392 | ~ 460 or 172 Mb

T. Rex - 6 Albums. Remastered, Bonus Tracks (1972 - 1977) [1994, Edsel Records]

Tracklist:

1. Venus Loon (3:01)
2. Sound Pit (2:51)
3. Explosive Mouth (2:26)
4. Galaxy (1:49)
5. Change (2:47)
6. Nameless Wilderness (3:07)
7. Teenage Dream (5:46)
8. Liquid Gang (3:17)
9. Carsmile Smith And The Old One (3:16)
10. You've Got To Jive To Stay Alive - Spanish Midnight (2:35)
11. Interstellar Soul (3:27)
12. Painless Persuasion v. The Meathawk Immaculate (3:26)
13. The Avengers (Superbad) (4:29)
14. The Leopards Featuring Gardenia And The Mighty Slug (3:36)

Bonus Tracks:

15. The Groover (3:22)
16. Midnight (2:46)
17. Truck On (Tyke) (3:07)
18. Sitting Here (2:19)
19. Satisfaction Pony (2:51)

Exact Audio Copy V1.0 beta 3 from 29. August 2011

EAC extraction logfile from 12. October 2011, 20:27

Marc Bolan & T.Rex / Zinc Alloy And The Hidden Riders Of Tomorrow (Demon EDCD392)

Used drive : ASUS DRW-24B3ST Adapter: 2 ID: 0

Read mode : Secure
Utilize accurate stream : Yes
Defeat audio cache : Yes
Make use of C2 pointers : No

Read offset correction : 6
Overread into Lead-In and Lead-Out : No
Fill up missing offset samples with silence : Yes
Delete leading and trailing silent blocks : No
Null samples used in CRC calculations : Yes
Used interface : Native Win32 interface for Win NT & 2000

Used output format : User Defined Encoder
Selected bitrate : 1024 kBit/s
Quality : High
Add ID3 tag : No
Command line compressor : C:\Program Files\Exact Audio Copy\FLAC\FLAC.EXE
Additional command line options : -6 -V -T "ARTIST=%artist%" -T "TITLE=%title%" -T "ALBUM=%albumtitle%" -T "DATE=%year%" -T "TRACKNUMBER=%tracknr%" -T "GENRE=%genre%" -T "COMMENT=%comment%" -T "BAND=%albuminterpret%" -T "COMPOSER=%composer%" %haslyrics%–tag-from-file=LYRICS="%lyricsfile%"%haslyrics% -T "DISCNUMBER=%cdnumber%" -T "TOTALDISCS=%totalcds%" -T "TOTALTRACKS=%numtracks%" %hascover%–picture="%coverfile%"%hascover% %source% -o %dest%


TOC of the extracted CD

Track | Start | Length | Start sector | End sector
––––––––––––––––––––––––––––-
1 | 0:00.32 | 3:03.33 | 32 | 13789
2 | 3:03.65 | 2:51.35 | 13790 | 26649
3 | 5:55.25 | 2:28.27 | 26650 | 37776
4 | 8:23.52 | 1:50.23 | 37777 | 46049
5 | 10:14.00 | 2:47.72 | 46050 | 58646
6 | 13:01.72 | 3:07.60 | 58647 | 72731
7 | 16:09.57 | 5:50.25 | 72732 | 99006
8 | 22:00.07 | 3:18.23 | 99007 | 113879
9 | 25:18.30 | 3:16.10 | 113880 | 128589
10 | 28:34.40 | 2:35.15 | 128590 | 140229
11 | 31:09.55 | 3:28.62 | 140230 | 155891
12 | 34:38.42 | 3:29.50 | 155892 | 171616
13 | 38:08.17 | 4:32.35 | 171617 | 192051
14 | 42:40.52 | 3:43.58 | 192052 | 208834
15 | 46:24.35 | 3:24.25 | 208835 | 224159
16 | 49:48.60 | 2:48.55 | 224160 | 236814
17 | 52:37.40 | 3:09.20 | 236815 | 251009
18 | 55:46.60 | 2:20.72 | 251010 | 261581
19 | 58:07.57 | 2:50.50 | 261582 | 274381


Range status and errors

Selected range

Filename H:\dafnaplus\1974 - Zinc Alloy And The Hidden Riders Of Tomorrow\Cd\Marc Bolan & T.Rex - Zinc Alloy And The Hidden Riders Of Tomorrow (Demon EDCD392).wav

Peak level 100.0 %
Extraction speed 8.3 X
Range quality 100.0 %
Test CRC 67A92336
Copy CRC 67A92336
Copy OK

No errors occurred


AccurateRip summary

Track 1 cannot be verified as accurate (confidence 4) [AC017D58], AccurateRip returned [6FFD0B7A] (AR v2)
Track 2 cannot be verified as accurate (confidence 4) [C7991871], AccurateRip returned [A53C4577] (AR v2)
Track 3 cannot be verified as accurate (confidence 4) [08123739], AccurateRip returned [AE9E566B] (AR v2)
Track 4 cannot be verified as accurate (confidence 4) [DD292CBE], AccurateRip returned [5AECEB40] (AR v2)
Track 5 cannot be verified as accurate (confidence 4) [80843313], AccurateRip returned [21EE175C] (AR v2)
Track 6 cannot be verified as accurate (confidence 4) [C6ACA1C6], AccurateRip returned [EC33DAB4] (AR v2)
Track 7 cannot be verified as accurate (confidence 4) [B4A29A07], AccurateRip returned [D83B7267] (AR v2)
Track 8 cannot be verified as accurate (confidence 4) [DAAA24D5], AccurateRip returned [F5E20E29] (AR v2)
Track 9 cannot be verified as accurate (confidence 4) [5880EBD8], AccurateRip returned [5F9E5C8A] (AR v2)
Track 10 cannot be verified as accurate (confidence 4) [F68F28EB], AccurateRip returned [EC644B8F] (AR v2)
Track 11 cannot be verified as accurate (confidence 4) [0C57B23E], AccurateRip returned [BF2902DA] (AR v2)
Track 12 cannot be verified as accurate (confidence 4) [1A91CFD9], AccurateRip returned [5A12E2FD] (AR v2)
Track 13 cannot be verified as accurate (confidence 4) [6AFAF6FE], AccurateRip returned [39D11C19] (AR v2)
Track 14 cannot be verified as accurate (confidence 4) [6ECDD8AF], AccurateRip returned [DB13AB41] (AR v2)
Track 15 cannot be verified as accurate (confidence 4) [33B9025A], AccurateRip returned [63E4141D] (AR v2)
Track 16 cannot be verified as accurate (confidence 4) [A1AD2E19], AccurateRip returned [3B365396] (AR v2)
Track 17 cannot be verified as accurate (confidence 4) [886E54E1], AccurateRip returned [2DEA4AE8] (AR v2)
Track 18 cannot be verified as accurate (confidence 4) [8C9ABF7D], AccurateRip returned [4F5E4D8C] (AR v2)
Track 19 cannot be verified as accurate (confidence 4) [4EE6BCAA], AccurateRip returned [801C7364] (AR v2)

No tracks could be verified as accurate
You may have a different pressing from the one(s) in the database

End of status report

==== Log checksum 094847A519465D5F91A0FEA70CB82ED51CAF70595B7D9B692D3053DA9B257018 ====

AUDIOCHECKER v2.0 beta (build 457) - by Dester - opdester@freemail.hu
~~~~~~~~~~~~~~~~~~~~~~~~~~~~~~~~~~
-=== DO NOT EDIT THIS FILE! ===-

Path: …\T. Rex - 1974 - Zinc Alloy And The Hidden Riders Of Tomorrow (Demon EDCD392)

1 -=- Marc Bolan & T.Rex - Zinc Alloy And The Hidden Riders Of Tomorrow (Demon EDCD392).flac -=- CDDA (100%)

97007876

[Verification date: 26.10.2011 13:07:54]
[Disc ID: 00296882-024b906b-170e4a13]
Pregap length 00:00:32.
Track [ CRC ] Status
01 [a57875b2] (00/07) No matches
02 [71931f8a] (00/07) No matches
03 [c1075f2e] (00/07) No matches
04 [0df35aa1] (00/07) No matches
05 [f491c371] (00/07) No matches
06 [d8b1c44f] (00/07) No matches
07 [c25a5d62] (00/07) No matches
08 [e9c87963] (00/07) No matches
09 [b30779c3] (00/07) No matches
10 [4b46fbb6] (00/07) No matches
11 [67582987] (00/07) No matches
12 [cdf83987] (00/07) No matches
13 [39eea757] (00/07) No matches
14 [94d89f49] (00/07) No matches
15 [efd5010b] (00/07) No matches
16 [22b591b3] (00/07) No matches
17 [8077c47c] (00/07) No matches
18 [8f6d73b1] (00/07) No matches
19 [0694e271] (00/07) No matches

Track [ CRC32 ] [W/O NULL] [ LOG ]
– [67A92336] [EB6F9F7A] CRC32
01 [08EB1B8E] [46748DB8]
02 [DDF8D80B] [5D9A92EB]
03 [97AF1180] [22C40140]
04 [84F6224B] [AB3D8B9B]
05 [007191FC] [A4DF51F1]
06 [3C81513B] [77792608]
07 [F852F76F] [395AEDE2]
08 [03053303] [FAF92344]
09 [D61ABFB1] [0326E5B7]
10 [2D4BACC1] [DD671A8E]
11 [97EE60AC] [0701A722]
12 [07E10F7D] [2C323E30]
13 [86BFE937] [C7B02E8C]
14 [38578C96] [98E90879]
15 [4A49F1B5] [44BEE35C]
16 [EC55FD29] [22A3F627]
17 [82AD830D] [0DF18570]
18 [1BDFC913] [CFE495B8]
19 [9DE15406] [A5E44346]

==============

T. Rex - 6 Albums. Remastered, Bonus Tracks (1972 - 1977) [1994, Edsel Records]

T. Rex - Bolan's Zip Gun (1975)
Rock | EAC Rip | Flac(Image) + Cue + Log & MP3 CBR 320Kbps
1994 | Edsel Records, EDCD393 | ~ 291 or 119 Mb

T. Rex - 6 Albums. Remastered, Bonus Tracks (1972 - 1977) [1994, Edsel Records]

Tracklist:

1. Light Of Love (3:16)
2. Solid Baby (2:37)
3. Precious Star (2:53)
4. Token Of My Love (3:40)
5. Space Boss (2:49)
6. Think Zinc (3:25)
7. Till Dawn (3:02)
8. Girl In The Thunderbolt Suit (2:20)
9. I Really Love You Babe (3:33)
10. Golden Belt (2:41)
11. Zip Gun Boogie (3:26)

Bonus Tracks:

12. Do You Wanna Dance? (2:16)
13. Dock Of The Bay (2:20)

Exact Audio Copy V1.0 beta 3 from 29. August 2011

EAC extraction logfile from 12. October 2011, 21:18

T. Rex / Bolan's Zip Gun (Demon EDCD393)

Used drive : ASUS DRW-24B3ST Adapter: 2 ID: 0

Read mode : Secure
Utilize accurate stream : Yes
Defeat audio cache : Yes
Make use of C2 pointers : No

Read offset correction : 6
Overread into Lead-In and Lead-Out : No
Fill up missing offset samples with silence : Yes
Delete leading and trailing silent blocks : No
Null samples used in CRC calculations : Yes
Used interface : Native Win32 interface for Win NT & 2000

Used output format : User Defined Encoder
Selected bitrate : 1024 kBit/s
Quality : High
Add ID3 tag : No
Command line compressor : C:\Program Files\Exact Audio Copy\FLAC\FLAC.EXE
Additional command line options : -6 -V -T "ARTIST=%artist%" -T "TITLE=%title%" -T "ALBUM=%albumtitle%" -T "DATE=%year%" -T "TRACKNUMBER=%tracknr%" -T "GENRE=%genre%" -T "COMMENT=%comment%" -T "BAND=%albuminterpret%" -T "COMPOSER=%composer%" %haslyrics%–tag-from-file=LYRICS="%lyricsfile%"%haslyrics% -T "DISCNUMBER=%cdnumber%" -T "TOTALDISCS=%totalcds%" -T "TOTALTRACKS=%numtracks%" %hascover%–picture="%coverfile%"%hascover% %source% -o %dest%


TOC of the extracted CD

Track | Start | Length | Start sector | End sector
––––––––––––––––––––––––––––-
1 | 0:00.32 | 3:16.50 | 32 | 14781
2 | 3:17.07 | 2:37.43 | 14782 | 26599
3 | 5:54.50 | 2:53.00 | 26600 | 39574
4 | 8:47.50 | 3:40.15 | 39575 | 56089
5 | 12:27.65 | 2:49.50 | 56090 | 68814
6 | 15:17.40 | 3:25.45 | 68815 | 84234
7 | 18:43.10 | 3:02.22 | 84235 | 97906
8 | 21:45.32 | 2:20.73 | 97907 | 108479
9 | 24:06.30 | 3:33.62 | 108480 | 124516
10 | 27:40.17 | 2:41.33 | 124517 | 136624
11 | 30:21.50 | 3:26.25 | 136625 | 152099
12 | 33:48.00 | 2:16.47 | 152100 | 162346
13 | 36:04.47 | 2:20.60 | 162347 | 172906


Range status and errors

Selected range

Filename H:\dafnaplus\1975 - Bolan's Zip Gun\Cd\T. Rex - Bolan's Zip Gun (Demon EDCD393).wav

Peak level 100.0 %
Extraction speed 2.7 X
Range quality 99.9 %
Test CRC 41267B76
Copy CRC 41267B76
Copy OK

No errors occurred


AccurateRip summary

Track 1 accurately ripped (confidence 3) [25C3DC05] (AR v1)
Track 2 accurately ripped (confidence 3) [9FFBC3B1] (AR v1)
Track 3 accurately ripped (confidence 3) [99BE84BD] (AR v1)
Track 4 accurately ripped (confidence 3) [410432CF] (AR v1)
Track 5 accurately ripped (confidence 3) [F214BDCD] (AR v1)
Track 6 accurately ripped (confidence 3) [3A2CF226] (AR v1)
Track 7 accurately ripped (confidence 3) [8096FC64] (AR v1)
Track 8 accurately ripped (confidence 3) [B1D4A447] (AR v1)
Track 9 accurately ripped (confidence 3) [5640D27E] (AR v1)
Track 10 accurately ripped (confidence 3) [2854921B] (AR v1)
Track 11 accurately ripped (confidence 3) [A191694F] (AR v1)
Track 12 accurately ripped (confidence 3) [75C04B87] (AR v1)
Track 13 accurately ripped (confidence 3) [501F1BB4] (AR v1)

All tracks accurately ripped

End of status report

==== Log checksum FC62BC92DC1191FDABBFC65868BB7D1A3B040CC026D0DF714731316F479D43BF ====

AUDIOCHECKER v2.0 beta (build 457) - by Dester - opdester@freemail.hu
~~~~~~~~~~~~~~~~~~~~~~~~~~~~~~~~~~
-=== DO NOT EDIT THIS FILE! ===-

Path: …\T. Rex - 1975 - Bolan's Zip Gun (Demon EDCD393)

1 -=- T. Rex - Bolan's Zip Gun (Demon EDCD393).flac -=- CDDA (100%)

81341748

[Verification date: 26.10.2011 13:08:29]
[Disc ID: 0012ff54-00bd6ef7-b009010d]
Pregap length 00:00:32.
Track [ CRC ] Status
01 [25c3dc05] (03/10) Accurately ripped as in pressing(s) #2
02 [9ffbc3b1] (03/10) Accurately ripped as in pressing(s) #2
03 [99be84bd] (03/10) Accurately ripped as in pressing(s) #2
04 [410432cf] (03/10) Accurately ripped as in pressing(s) #2
05 [f214bdcd] (03/10) Accurately ripped as in pressing(s) #2
06 [3a2cf226] (03/10) Accurately ripped as in pressing(s) #2
07 [8096fc64] (03/10) Accurately ripped as in pressing(s) #2
08 [b1d4a447] (03/10) Accurately ripped as in pressing(s) #2
09 [5640d27e] (03/10) Accurately ripped as in pressing(s) #2
10 [2854921b] (03/10) Accurately ripped as in pressing(s) #2
11 [a191694f] (03/10) Accurately ripped as in pressing(s) #2
12 [75c04b87] (03/10) Accurately ripped as in pressing(s) #2
13 [501f1bb4] (03/10) Accurately ripped as in pressing(s) #2
Offsetted by -1475:
01 [d8241c58] (00/10) No matches
02 [38b41dfb] (03/10) Accurately ripped as in pressing(s) #3
03 [26d40dd0] (03/10) Accurately ripped as in pressing(s) #3
04 [7b4584cc] (03/10) Accurately ripped as in pressing(s) #3
05 [a23dd70a] (03/10) Partial match to pressing(s) #2
06 [433e6cc9] (03/10) Accurately ripped as in pressing(s) #3
07 [7ad52f70] (03/10) Accurately ripped as in pressing(s) #3
08 [51ac6ffa] (03/10) Accurately ripped as in pressing(s) #3
09 [2bd3854d] (03/10) Accurately ripped as in pressing(s) #3
10 [1f3c1dd1] (03/10) Accurately ripped as in pressing(s) #3
11 [f5cb10d7] (03/10) Accurately ripped as in pressing(s) #3
12 [b24a5ee6] (03/10) Accurately ripped as in pressing(s) #3
13 [3dd82ed7] (03/10) Accurately ripped as in pressing(s) #3
Offsetted by -1474:
01 [a4203a27] (03/10) Partial match to pressing(s) #2
02 [6776080d] (00/10) No matches
03 [3288e35f] (00/10) No matches
04 [0d5e778d] (00/10) No matches
05 [d950620b] (00/10) No matches
06 [cf206328] (00/10) No matches
07 [09d97b6c] (00/10) No matches
08 [23bedca9] (00/10) No matches
09 [99b7d348] (00/10) No matches
10 [548611bf] (00/10) No matches
11 [d80eb6ff] (00/10) No matches
12 [bebee8b1] (00/10) No matches
13 [0aa827b6] (00/10) No matches

Track [ CRC32 ] [W/O NULL] [ LOG ]
– [41267B76] [F1122520] CRC32
01 [D90EB777] [610B3E12]
02 [8D072AD4] [65BF210B]
03 [E00DA0C6] [014F4694]
04 [FBFE951F] [E1E935B1]
05 [F1F64D8A] [47BADFE2]
06 [51B2AB21] [D7AC65A2]
07 [418F9F7C] [8C9B1F42]
08 [17709F31] [6E7D5E94]
09 [EA10C9B1] [47255239]
10 [D59611A9] [099F0CBA]
11 [AD269E4B] [9B73E039]
12 [373047AE] [ADEF8819]
13 [C8EC73DB] [9E94C03C]

==============

T. Rex - 6 Albums. Remastered, Bonus Tracks (1972 - 1977) [1994, Edsel Records]

T. Rex - Futuristic Dragon (1976)
Rock | EAC Rip | Flac(Image) + Cue + Log & MP3 CBR 320Kbps
1994 | Edsel Records, EDCD394 | ~ 404 or 153 Mb

T. Rex - 6 Albums. Remastered, Bonus Tracks (1972 - 1977) [1994, Edsel Records]

Tracklist:

1. Futuristic Dragon (Introduction) (1:52)
2. Jupiter Liar (3:42)
3. Chrome Sitar (3:14)
4. All Alone (2:50)
5. New York City (3:58)
6. My Little Baby (3:09)
7. Calling All Destroyers (3:57)
8. Theme For A Dragon (2:00)
9. Sensation Boulevard (3:49)
10. Ride My Wheels (2:28)
11. Dreamy Lady (2:55)
12. Dawn Storm (3:43)
13. Casual Agent (3:00)

Bonus Tracks:

14. London Boys (2:22)
15. Laser Love (3:38)
16. Life's An Elevator (2:24)

Exact Audio Copy V1.0 beta 3 from 29. August 2011

EAC extraction logfile from 12. October 2011, 22:32

T. Rex / Futuristic Dragon (Demon EDCD394)

Used drive : ASUS DRW-24B3ST Adapter: 2 ID: 0

Read mode : Secure
Utilize accurate stream : Yes
Defeat audio cache : Yes
Make use of C2 pointers : No

Read offset correction : 6
Overread into Lead-In and Lead-Out : No
Fill up missing offset samples with silence : Yes
Delete leading and trailing silent blocks : No
Null samples used in CRC calculations : Yes
Used interface : Native Win32 interface for Win NT & 2000

Used output format : User Defined Encoder
Selected bitrate : 1024 kBit/s
Quality : High
Add ID3 tag : No
Command line compressor : C:\Program Files\Exact Audio Copy\FLAC\FLAC.EXE
Additional command line options : -6 -V -T "ARTIST=%artist%" -T "TITLE=%title%" -T "ALBUM=%albumtitle%" -T "DATE=%year%" -T "TRACKNUMBER=%tracknr%" -T "GENRE=%genre%" -T "COMMENT=%comment%" -T "BAND=%albuminterpret%" -T "COMPOSER=%composer%" %haslyrics%–tag-from-file=LYRICS="%lyricsfile%"%haslyrics% -T "DISCNUMBER=%cdnumber%" -T "TOTALDISCS=%totalcds%" -T "TOTALTRACKS=%numtracks%" %hascover%–picture="%coverfile%"%hascover% %source% -o %dest%


TOC of the extracted CD

Track | Start | Length | Start sector | End sector
––––––––––––––––––––––––––––-
1 | 0:00.32 | 1:52.48 | 32 | 8479
2 | 1:53.05 | 3:42.47 | 8480 | 25176
3 | 5:35.52 | 3:14.38 | 25177 | 39764
4 | 8:50.15 | 2:50.12 | 39765 | 52526
5 | 11:40.27 | 3:58.00 | 52527 | 70376
6 | 15:38.27 | 3:09.15 | 70377 | 84566
7 | 18:47.42 | 3:57.50 | 84567 | 102391
8 | 22:45.17 | 2:00.48 | 102392 | 111439
9 | 24:45.65 | 3:49.00 | 111440 | 128614
10 | 28:34.65 | 2:28.22 | 128615 | 139736
11 | 31:03.12 | 2:55.33 | 139737 | 152894
12 | 33:58.45 | 3:43.20 | 152895 | 169639
13 | 37:41.65 | 3:00.72 | 169640 | 183211
14 | 40:42.62 | 2:22.18 | 183212 | 193879
15 | 43:05.05 | 3:38.25 | 193880 | 210254
16 | 46:43.30 | 2:24.27 | 210255 | 221081


Range status and errors

Selected range

Filename H:\dafnaplus\1976 - Futuristic Dragon\Cd\T. Rex - Futuristic Dragon (Demon EDCD394).wav

Peak level 100.0 %
Extraction speed 7.6 X
Range quality 100.0 %
Test CRC EABFF3F9
Copy CRC EABFF3F9
Copy OK

No errors occurred


AccurateRip summary

Track 1 accurately ripped (confidence 2) [E8E2531B] (AR v1)
Track 2 accurately ripped (confidence 2) [D30E4CD0] (AR v1)
Track 3 accurately ripped (confidence 2) [B102EF2C] (AR v1)
Track 4 accurately ripped (confidence 2) [61B5C281] (AR v1)
Track 5 accurately ripped (confidence 2) [463326B9] (AR v1)
Track 6 accurately ripped (confidence 2) [0DA55AD2] (AR v1)
Track 7 accurately ripped (confidence 2) [DDF0F39F] (AR v1)
Track 8 accurately ripped (confidence 2) [9C0825EF] (AR v1)
Track 9 accurately ripped (confidence 2) [5C055692] (AR v1)
Track 10 accurately ripped (confidence 2) [FC4B8537] (AR v1)
Track 11 accurately ripped (confidence 2) [D67801BE] (AR v1)
Track 12 accurately ripped (confidence 2) [C8D0420C] (AR v1)
Track 13 accurately ripped (confidence 2) [800B97EB] (AR v1)
Track 14 accurately ripped (confidence 2) [47B6DED0] (AR v1)
Track 15 accurately ripped (confidence 2) [98ABED8E] (AR v1)
Track 16 accurately ripped (confidence 2) [9F53DD8B] (AR v1)

All tracks accurately ripped

End of status report

==== Log checksum 2DD9051F5A9F8892B70A6E995EBC4F3918D7DF94CB0B2F71A01D0797612776CE ====

AUDIOCHECKER v2.0 beta (build 457) - by Dester - opdester@freemail.hu
~~~~~~~~~~~~~~~~~~~~~~~~~~~~~~~~~~
-=== DO NOT EDIT THIS FILE! ===-

Path: …\T. Rex - 1976 - Futuristic Dragon (Demon EDCD394)

1 -=- T. Rex - Futuristic Dragon (Demon EDCD394).flac -=- CDDA (100%)

58858948

[Verification date: 26.10.2011 13:08:59]
[Disc ID: 001ce6b9-015c0ba0-d10b8310]
Pregap length 00:00:32.
Track [ CRC ] Status
01 [e8e2531b] (02/15) Accurately ripped as in pressing(s) #3
02 [d30e4cd0] (02/16) Accurately ripped as in pressing(s) #3
03 [b102ef2c] (02/15) Accurately ripped as in pressing(s) #3
04 [61b5c281] (02/15) Accurately ripped as in pressing(s) #3
05 [463326b9] (02/15) Accurately ripped as in pressing(s) #3
06 [0da55ad2] (02/15) Accurately ripped as in pressing(s) #3
07 [ddf0f39f] (02/15) Accurately ripped as in pressing(s) #3
08 [9c0825ef] (02/15) Accurately ripped as in pressing(s) #3
09 [5c055692] (02/16) Accurately ripped as in pressing(s) #3
10 [fc4b8537] (02/16) Accurately ripped as in pressing(s) #3
11 [d67801be] (02/16) Accurately ripped as in pressing(s) #3
12 [c8d0420c] (02/15) Accurately ripped as in pressing(s) #3
13 [800b97eb] (02/15) Accurately ripped as in pressing(s) #3
14 [47b6ded0] (02/15) Accurately ripped as in pressing(s) #3
15 [98abed8e] (02/16) Accurately ripped as in pressing(s) #3
16 [9f53dd8b] (02/16) Accurately ripped as in pressing(s) #3
Offsetted by -1468:
01 [6efc9dd2] (02/15) Accurately ripped as in pressing(s) #4
02 [1417f3d1] (02/16) Accurately ripped as in pressing(s) #4
03 [cd651374] (02/15) Accurately ripped as in pressing(s) #4
04 [05d4d285] (02/15) Accurately ripped as in pressing(s) #4
05 [5afacacd] (02/15) Accurately ripped as in pressing(s) #4
06 [00af2d16] (02/15) Accurately ripped as in pressing(s) #4
07 [2572cfcf] (02/15) Accurately ripped as in pressing(s) #4
08 [77e4cd1f] (02/15) Accurately ripped as in pressing(s) #4
09 [24189e96] (02/16) Accurately ripped as in pressing(s) #4
10 [9fa6e05f] (02/16) Accurately ripped as in pressing(s) #4
11 [33f42006] (02/16) Accurately ripped as in pressing(s) #4
12 [8451afd4] (02/15) Accurately ripped as in pressing(s) #4
13 [625c4d73] (02/15) Accurately ripped as in pressing(s) #4
14 [27c24aa8] (02/15) Accurately ripped as in pressing(s) #4
15 [866e26fa] (02/16) Accurately ripped as in pressing(s) #4
16 [6e4b5307] (02/16) Accurately ripped as in pressing(s) #4

Track [ CRC32 ] [W/O NULL] [ LOG ]
– [EABFF3F9] [437980CA] CRC32
01 [48F8DE91] [0491F566]
02 [5C0BFB5D] [D19695D9]
03 [09F5FD86] [84820B43]
04 [7A134E6B] [EE864D9A]
05 [8310274A] [CC918B6D]
06 [5735EE9B] [E785C562]
07 [3AA5D76E] [2BC17BFF]
08 [8ED94DD0] [E0F92B19]
09 [850F551F] [955C1DD4]
10 [57079C57] [7286F93D]
11 [029C79C6] [6CE1A3DB]
12 [78C954B3] [CB482ADB]
13 [4A5684FB] [E6A4C00C]
14 [B100FA60] [B319A1EB]
15 [62D1DF3D] [52E52949]
16 [57A6EF2E] [581D7F60]

==============

T. Rex - 6 Albums. Remastered, Bonus Tracks (1972 - 1977) [1994, Edsel Records]

T. Rex - Dandy In The Underworld (1977)
Rock | EAC Rip | Flac(Image) + Cue + Log & MP3 CBR 320Kbps
1994 | Edsel Records, EDCD395 | ~ 377 or 154 Mb

T. Rex - 6 Albums. Remastered, Bonus Tracks (1972 - 1977) [1994, Edsel Records]

Tracklist:

1. Dandy In The Underworld (4:36)
2. Crimson Moon (3:25)
3. Universe (2:44)
4. I'm A Fool For You Girl (2:18)
5. I Love To Boogie (2:15)
6. Visions Of Domino (2:28)
7. Jason B. Sad (3:23)
8. Groove A Little (3:25)
9. The Soul Of My Suit (2:37)
10. Hang-Ups (3:29)
11. Pain And Love (3:41)
12. Teen Riot Structure (3:41)

Bonus Tracks:

13. To Know You Is To Love You (To Know Him Is To Love Him) (2:46)
14. City Port (2:43)
15. Dandy In The Underworld [single version] (3:52)
16. Tame My Tiger (2:32)
17. Celebrate Summer (2:36)

Exact Audio Copy V1.0 beta 3 from 29. August 2011

EAC extraction logfile from 12. October 2011, 23:06

T.Rex / Dandy In The Underworld (Demon EDCD395)

Used drive : ASUS DRW-24B3ST Adapter: 2 ID: 0

Read mode : Secure
Utilize accurate stream : Yes
Defeat audio cache : Yes
Make use of C2 pointers : No

Read offset correction : 6
Overread into Lead-In and Lead-Out : No
Fill up missing offset samples with silence : Yes
Delete leading and trailing silent blocks : No
Null samples used in CRC calculations : Yes
Used interface : Native Win32 interface for Win NT & 2000

Used output format : User Defined Encoder
Selected bitrate : 1024 kBit/s
Quality : High
Add ID3 tag : No
Command line compressor : C:\Program Files\Exact Audio Copy\FLAC\FLAC.EXE
Additional command line options : -6 -V -T "ARTIST=%artist%" -T "TITLE=%title%" -T "ALBUM=%albumtitle%" -T "DATE=%year%" -T "TRACKNUMBER=%tracknr%" -T "GENRE=%genre%" -T "COMMENT=%comment%" -T "BAND=%albuminterpret%" -T "COMPOSER=%composer%" %haslyrics%–tag-from-file=LYRICS="%lyricsfile%"%haslyrics% -T "DISCNUMBER=%cdnumber%" -T "TOTALDISCS=%totalcds%" -T "TOTALTRACKS=%numtracks%" %hascover%–picture="%coverfile%"%hascover% %source% -o %dest%


TOC of the extracted CD

Track | Start | Length | Start sector | End sector
––––––––––––––––––––––––––––-
1 | 0:00.32 | 4:36.05 | 32 | 20736
2 | 4:36.37 | 3:25.10 | 20737 | 36121
3 | 8:01.47 | 2:44.68 | 36122 | 48489
4 | 10:46.40 | 2:18.67 | 48490 | 58906
5 | 13:05.32 | 2:15.50 | 58907 | 69081
6 | 15:21.07 | 2:28.53 | 69082 | 80234
7 | 17:49.60 | 3:23.70 | 80235 | 95529
8 | 21:13.55 | 3:25.65 | 95530 | 110969
9 | 24:39.45 | 2:37.42 | 110970 | 122786
10 | 27:17.12 | 3:29.55 | 122787 | 138516
11 | 30:46.67 | 3:41.33 | 138517 | 155124
12 | 34:28.25 | 3:41.00 | 155125 | 171699
13 | 38:09.25 | 2:46.40 | 171700 | 184189
14 | 40:55.65 | 2:43.62 | 184190 | 196476
15 | 43:39.52 | 3:52.33 | 196477 | 213909
16 | 47:32.10 | 2:32.55 | 213910 | 225364
17 | 50:04.65 | 2:36.67 | 225365 | 237131


Range status and errors

Selected range

Filename H:\dafnaplus\1977 - Dandy In The Underworld\Cd\T.Rex - Dandy In The Underworld (Demon EDCD395).wav

Peak level 99.8 %
Extraction speed 7.6 X
Range quality 100.0 %
Test CRC 9AFABB68
Copy CRC 9AFABB68
Copy OK

No errors occurred


AccurateRip summary

Track 1 cannot be verified as accurate (confidence 3) [5C3E5566], AccurateRip returned [C2FA9312] (AR v2)
Track 2 cannot be verified as accurate (confidence 3) [FE3590E2], AccurateRip returned [89E9439A] (AR v2)
Track 3 cannot be verified as accurate (confidence 3) [6F3CB354], AccurateRip returned [A2DC1435] (AR v2)
Track 4 cannot be verified as accurate (confidence 3) [0234AB01], AccurateRip returned [047165AC] (AR v2)
Track 5 cannot be verified as accurate (confidence 3) [E66547E4], AccurateRip returned [44D4D417] (AR v2)
Track 6 cannot be verified as accurate (confidence 3) [BB230A18], AccurateRip returned [7DD04578] (AR v2)
Track 7 cannot be verified as accurate (confidence 3) [8368BA3C], AccurateRip returned [1F150762] (AR v2)
Track 8 cannot be verified as accurate (confidence 3) [0F377B90], AccurateRip returned [D5BA2A2A] (AR v2)
Track 9 cannot be verified as accurate (confidence 3) [B6383212], AccurateRip returned [B03557A7] (AR v2)
Track 10 cannot be verified as accurate (confidence 3) [316EBB48], AccurateRip returned [10C16287] (AR v2)
Track 11 cannot be verified as accurate (confidence 3) [5ECD911D], AccurateRip returned [EBFFB5D9] (AR v2)
Track 12 cannot be verified as accurate (confidence 3) [4C63B87B], AccurateRip returned [77B8C0A3] (AR v2)
Track 13 cannot be verified as accurate (confidence 3) [ABB56CC3], AccurateRip returned [8170D61A] (AR v2)
Track 14 cannot be verified as accurate (confidence 3) [B7E15DB3], AccurateRip returned [63975473] (AR v2)
Track 15 cannot be verified as accurate (confidence 3) [F0D76820], AccurateRip returned [B514B7EE] (AR v2)
Track 16 cannot be verified as accurate (confidence 3) [8B6CF385], AccurateRip returned [A635A835] (AR v2)
Track 17 cannot be verified as accurate (confidence 3) [7A4FF984], AccurateRip returned [EF772A06] (AR v2)

No tracks could be verified as accurate
You may have a different pressing from the one(s) in the database

End of status report

==== Log checksum 553A03AF62F43F9C844DC1DE321EEB90AFB121AB2EAD85EEE710A0DA95143485 ====

AUDIOCHECKER v2.0 beta (build 457) - by Dester - opdester@freemail.hu
~~~~~~~~~~~~~~~~~~~~~~~~~~~~~~~~~~
-=== DO NOT EDIT THIS FILE! ===-

Path: …\T. Rex - 1977 - Dandy In The Underworld (Demon EDCD395)

1 -=- T.Rex - Dandy In The Underworld (Demon EDCD395).flac -=- CDDA (99%)

2833716

Verification date: 26.10.2011 13:09:33]
[Disc ID: 00210a3c-01a01dbb-f60c5911]
Pregap length 00:00:32.
Track [ CRC ] Status
01 [b9c1c06e] (00/12) No matches
02 [6064d8ca] (00/12) No matches
03 [ee8d4be9] (00/12) No matches
04 [45702340] (00/12) No matches
05 [4277a287] (00/12) No matches
06 [972bf210] (00/12) No matches
07 [6e18e7ce] (00/12) No matches
08 [6e93be46] (00/12) No matches
09 [7d00d3e3] (00/12) No matches
10 [6613d763] (00/12) No matches
11 [09aa272b] (00/12) No matches
12 [af6cfc9d] (00/12) No matches
13 [cc00cd3e] (00/12) No matches
14 [000070d3] (00/12) No matches
15 [ad90b9c2] (00/12) No matches
16 [28e45ae1] (00/12) No matches
17 [571df9ce] (00/12) No matches
Offsetted by 164:
01 [c2fa9312] (03/12) Accurately ripped as in pressing(s) #1
02 [89e9439a] (03/12) Accurately ripped as in pressing(s) #1
03 [a2dc1435] (03/12) Accurately ripped as in pressing(s) #1
04 [047165ac] (03/12) Accurately ripped as in pressing(s) #1
05 [44d4d417] (03/12) Accurately ripped as in pressing(s) #1
06 [7dd04578] (03/12) Accurately ripped as in pressing(s) #1
07 [1f150762] (03/12) Accurately ripped as in pressing(s) #1
08 [d5ba2a2a] (03/12) Accurately ripped as in pressing(s) #1
09 [b03557a7] (03/12) Accurately ripped as in pressing(s) #1
10 [10c16287] (03/12) Accurately ripped as in pressing(s) #1
11 [ebffb5d9] (03/12) Accurately ripped as in pressing(s) #1
12 [77b8c0a3] (03/12) Accurately ripped as in pressing(s) #1
13 [8170d61a] (03/12) Accurately ripped as in pressing(s) #1
14 [63975473] (03/12) Accurately ripped as in pressing(s) #1
15 [b514b7ee] (03/12) Accurately ripped as in pressing(s) #1
16 [a635a835] (03/12) Accurately ripped as in pressing(s) #1
17 [ef772a06] (03/12) Accurately ripped as in pressing(s) #1

Track [ CRC32 ] [W/O NULL] [ LOG ]
– [9AFABB68] [94A8ABCA] CRC32
01 [4A4D547B] [65979C73]
02 [C11F9A5F] [1A39AC21]
03 [CC2AC526] [914752F2]
04 [A3BF085F] [86862022]
05 [383B7464] [0D313286]
06 [2901F937] [78957853]
07 [EBD9CDAA] [BE44E8B5]
08 [8AF98303] [46D798DD]
09 [11BE5CB2] [DFD4A9AC]
10 [C2224173] [20BD4148]
11 [A1567ABC] [22D0BD06]
12 [717484A1] [849B7FD1]
13 [FD6BA5E8] [FD392338]
14 [52BBE7D2] [90AF30EC]
15 [753A3150] [6B9889D9]
16 [A5F182AB] [24E9B102]
17 [4A66DB61] [B27A3F77]

All thanks to dafnaplus

Download T. Rex - 6 Albums. Remastered with Bonus Tracks (1972 - 1977) [1994, Edsel Records]: