Tags
Language
Tags

T. Rex - Electric Warrior / Dandy In The Underworld (1971/1977) {2000, 2 Albums on 1 CD}

Posted By: popsakov
T. Rex - Electric Warrior / Dandy In The Underworld (1971/1977) {2000, 2 Albums on 1 CD}

T. Rex - Electric Warrior / Dandy In The Underworld (1971/1977) {2000, 2 Albums on 1 CD}
EAC Rip | FLAC (Tracks) + Cue + m3u + Log ~ 506 Mb | MP3 CBR320 ~ 186 Mb
Full Scans ~ 228 Mb | RAR 5% Recovery
Glam Rock | CD-Maximum #CDM 0900-516

T. Rex were an English rock band, formed in 1967 by singer-songwriter and guitarist Marc Bolan. The band was initially called Tyrannosaurus Rex, and released four psychedelic folk albums under this name. In 1969, Bolan began to shift from the band's early acoustic sound to an electric one. The following year, he shortened their name to T. Rex. The 1970 release of the single "Ride a White Swan" marked the culmination of this development, and the group soon became a commercial success as part of the emerging glam rock scene.

From 1970 until 1973, T. Rex encountered a popularity in the UK comparable to that of the Beatles, with a run of eleven singles in the UK top ten. One of the most prominent acts in British popular culture, they scored four UK number one hits, "Hot Love", "Get It On" [issued in U.S. as "Bang A Gong (Get it On)"], "Telegram Sam" and "Metal Guru". The band's 1971 album Electric Warrior received critical acclaim as a pioneering glam rock album. It reached number 1 in the UK. The 1972 follow-up, The Slider, entered the top 20 in the US. Following the release of "20th Century Boy" in 1973, which reached number three in the UK, T. Rex began to experience less commercial success but continued recording one album per year. In 1977, Bolan died in a car crash several months after the release of the band's final studio album Dandy in the Underworld. Since then, T. Rex have continued to exert a vast influence on a variety of subsequent artists.

***************

T. Rex - Electric Warrior / Dandy In The Underworld (1971/1977) {2000, 2 Albums on 1 CD}

T. Rex - Electric Warrior / Dandy In The Underworld (1971/1977) {2000, 2 Albums on 1 CD}

Track List:

Electric Warrior (1971)
01. Mambo Sun [0:03:38.62]
02. Cosmic Dancer [0:04:27.64]
03. Jeepster [0:04:09.60]
04. Monolith [0:03:47.22]
05. Lean Woman Blues [0:03:00.34]
06. Bang A Gong (Get It On) [0:04:23.63]
07. Planet Queen [0:03:11.56]
08. Girl [0:02:30.72]
09. The Motivator [0:03:58.57]
10. Life's A Gas [0:02:22.50]
11. Rip Off [0:03:40.67]

Personnel:
Marc Bolan - vocals, guitar
Mickey Finn - conga drums, bongos
Steve Currie - bass guitar
Bill Legend - drums, tambourine
Howard Kaylan - backing vocals
Mark Volman - backing vocals
Rick Wakeman - keyboards on "Get It On"
Ian McDonald - saxophone
Burt Collins - flugelhorn

Dandy In The Underworld (1977)
12. Dandy In The Underworld [0:04:33.25]
13. Crimson Moon [0:03:22.66]
14. Universe [0:02:43.66]
15. I'm A Fool For You Girl [0:02:16.66]
16. I Love To Boogie [0:02:14.29]
17. Visions Of Domino [0:02:23.71]
18. Jason B. Sad [0:03:23.04]
19. Groove A Little [0:03:24.47]
20. The Soul Of My Suit [0:02:37.29]
21. Hang-Ups [0:03:28.23]
22. Pain And Love [0:03:41.33]
23. Teen Riot Structure [0:03:33.04]

Personnel:
Marc Bolan - vocals, guitar, bass guitar, percussion, maracas, tambourine
Steve Harley - backing vocals
Alfalpha - backing vocals
Nick Laird-Clowes - backing vocals
Andy Harley - backing vocals
Sam Harley - backing vocals
Gloria Jones - backing vocals
Colin Jacas - backing vocals
Dino Dines - keyboards
Tony Newman - drums
Herbie Flowers - bass guitar
Scott Edwards - bass guitar
Paul Humphrey - drums
Miller Anderson - guitar
Steve Currie - bass guitar
Davy Lutton - drums
Chris Mercer - saxophone
Bud Beadle - saxophone, flute
J.B. Long - violin

Exact Audio Copy V1.0 beta 3 from 29. August 2011

EAC extraction logfile from 1. January 2002, 3:44

T.Rex / Electric Warrior (1971) & Dandy In The Underworld (1977) (CDM 0900-516)

Used drive : SONY CD-RW CRX210E1 Adapter: 0 ID: 0

Read mode : Secure
Utilize accurate stream : Yes
Defeat audio cache : Yes
Make use of C2 pointers : No

Read offset correction : 6
Overread into Lead-In and Lead-Out : No
Fill up missing offset samples with silence : Yes
Delete leading and trailing silent blocks : No
Null samples used in CRC calculations : Yes
Used interface : Native Win32 interface for Win NT & 2000
Gap handling : Appended to previous track

Used output format : User Defined Encoder
Selected bitrate : 768 kBit/s
Quality : High
Add ID3 tag : No
Command line compressor : C:\Program Files\FLAC Frontend\tools\flac.exe
Additional command line options : -V -8 -T "Genre=%genre%" -T "Artist=%artist%" -T "Title=%title%" -T "Album=%albumtitle%" -T "Date=%year%" -T "Tracknumber=%tracknr%" -T "Comment=%comment%" %source%


TOC of the extracted CD

Track | Start | Length | Start sector | End sector
––––––––––––––––––––––––––––-
1 | 0:00.00 | 3:38.62 | 0 | 16411
2 | 3:38.62 | 4:27.64 | 16412 | 36500
3 | 8:06.51 | 4:09.60 | 36501 | 55235
4 | 12:16.36 | 3:47.22 | 55236 | 72282
5 | 16:03.58 | 3:00.34 | 72283 | 85816
6 | 19:04.17 | 4:23.63 | 85817 | 105604
7 | 23:28.05 | 3:11.56 | 105605 | 119985
8 | 26:39.61 | 2:30.72 | 119986 | 131307
9 | 29:10.58 | 3:58.57 | 131308 | 149214
10 | 33:09.40 | 2:22.50 | 149215 | 159914
11 | 35:32.15 | 3:40.67 | 159915 | 176481
12 | 39:13.07 | 4:33.25 | 176482 | 196981
13 | 43:46.32 | 3:22.66 | 196982 | 212197
14 | 47:09.23 | 2:43.66 | 212198 | 224488
15 | 49:53.14 | 2:16.66 | 224489 | 234754
16 | 52:10.05 | 2:14.29 | 234755 | 244833
17 | 54:24.34 | 2:23.71 | 244834 | 255629
18 | 56:48.30 | 3:23.04 | 255630 | 270858
19 | 60:11.34 | 3:24.47 | 270859 | 286205
20 | 63:36.06 | 2:37.29 | 286206 | 298009
21 | 66:13.35 | 3:28.23 | 298010 | 313632
22 | 69:41.58 | 3:41.33 | 313633 | 330240
23 | 73:23.16 | 3:33.04 | 330241 | 346219


Track 1

Filename C:\T.Rex - 2000 - Electric Warrior (1971) & Dandy In The Underworld (1977) (CDM 0900-516)\01 - Mambo Sun.wav

Pre-gap length 0:00:02.00

Peak level 91.8 %
Extraction speed 3.3 X
Track quality 100.0 %
Test CRC 205B04C4
Copy CRC 205B04C4
Cannot be verified as accurate (confidence 3) [477C2146], AccurateRip returned [A8B6A7F2] (AR v2)
Copy OK

Track 2

Filename C:\T.Rex - 2000 - Electric Warrior (1971) & Dandy In The Underworld (1977) (CDM 0900-516)\02 - Cosmic Dancer.wav

Pre-gap length 0:00:00.37

Peak level 94.3 %
Extraction speed 3.3 X
Track quality 100.0 %
Test CRC DC877CD8
Copy CRC DC877CD8
Cannot be verified as accurate (confidence 3) [1882F203], AccurateRip returned [9985116B] (AR v2)
Copy OK

Track 3

Filename C:\T.Rex - 2000 - Electric Warrior (1971) & Dandy In The Underworld (1977) (CDM 0900-516)\03 - Jeepster.wav

Pre-gap length 0:00:00.37

Peak level 98.2 %
Extraction speed 3.3 X
Track quality 100.0 %
Test CRC 5F55C5E9
Copy CRC 5F55C5E9
Cannot be verified as accurate (confidence 3) [339FE0DF], AccurateRip returned [3DB2AB86] (AR v2)
Copy OK

Track 4

Filename C:\T.Rex - 2000 - Electric Warrior (1971) & Dandy In The Underworld (1977) (CDM 0900-516)\04 - Monolith.wav

Pre-gap length 0:00:00.37

Peak level 90.5 %
Extraction speed 3.3 X
Track quality 100.0 %
Test CRC 52774749
Copy CRC 52774749
Cannot be verified as accurate (confidence 3) [3B4D541A], AccurateRip returned [4F9B5966] (AR v2)
Copy OK

Track 5

Filename C:\T.Rex - 2000 - Electric Warrior (1971) & Dandy In The Underworld (1977) (CDM 0900-516)\05 - Lean Woman Blues.wav

Pre-gap length 0:00:00.37

Peak level 92.6 %
Extraction speed 3.3 X
Track quality 100.0 %
Test CRC 1C4943F9
Copy CRC 1C4943F9
Cannot be verified as accurate (confidence 3) [83D2E9DE], AccurateRip returned [BAE5AB70] (AR v2)
Copy OK

Track 6

Filename C:\T.Rex - 2000 - Electric Warrior (1971) & Dandy In The Underworld (1977) (CDM 0900-516)\06 - Bang A Gong (Get It On).wav

Pre-gap length 0:00:00.37

Peak level 96.2 %
Extraction speed 3.3 X
Track quality 100.0 %
Test CRC 2008EDAF
Copy CRC 2008EDAF
Cannot be verified as accurate (confidence 3) [E2C71E93], AccurateRip returned [78BDF2AA] (AR v2)
Copy OK

Track 7

Filename C:\T.Rex - 2000 - Electric Warrior (1971) & Dandy In The Underworld (1977) (CDM 0900-516)\07 - Planet Queen.wav

Pre-gap length 0:00:00.37

Peak level 96.4 %
Extraction speed 3.3 X
Track quality 100.0 %
Test CRC 9C9B70A4
Copy CRC 9C9B70A4
Cannot be verified as accurate (confidence 3) [99425F07], AccurateRip returned [901AE331] (AR v2)
Copy OK

Track 8

Filename C:\T.Rex - 2000 - Electric Warrior (1971) & Dandy In The Underworld (1977) (CDM 0900-516)\08 - Girl.wav

Pre-gap length 0:00:00.37

Peak level 96.7 %
Extraction speed 3.2 X
Track quality 100.0 %
Test CRC 043716FD
Copy CRC 043716FD
Cannot be verified as accurate (confidence 3) [3EA2C40C], AccurateRip returned [CD6EAD27] (AR v2)
Copy OK

Track 9

Filename C:\T.Rex - 2000 - Electric Warrior (1971) & Dandy In The Underworld (1977) (CDM 0900-516)\09 - The Motivator.wav

Pre-gap length 0:00:00.37

Peak level 92.0 %
Extraction speed 3.3 X
Track quality 100.0 %
Test CRC 3FB9E584
Copy CRC 3FB9E584
Cannot be verified as accurate (confidence 3) [8CF2EF37], AccurateRip returned [11E1BFFD] (AR v2)
Copy OK

Track 10

Filename C:\T.Rex - 2000 - Electric Warrior (1971) & Dandy In The Underworld (1977) (CDM 0900-516)\10 - Life's A Gas.wav

Pre-gap length 0:00:00.37

Peak level 96.4 %
Extraction speed 3.2 X
Track quality 100.0 %
Test CRC 8D61306E
Copy CRC 8D61306E
Cannot be verified as accurate (confidence 3) [297EF983], AccurateRip returned [F820272C] (AR v2)
Copy OK

Track 11

Filename C:\T.Rex - 2000 - Electric Warrior (1971) & Dandy In The Underworld (1977) (CDM 0900-516)\11 - Rip Off.wav

Pre-gap length 0:00:00.37

Peak level 77.7 %
Extraction speed 3.3 X
Track quality 100.0 %
Test CRC 17CE02C9
Copy CRC 17CE02C9
Cannot be verified as accurate (confidence 3) [C3C0EB7E], AccurateRip returned [66BDDA59] (AR v2)
Copy OK

Track 12

Filename C:\T.Rex - 2000 - Electric Warrior (1971) & Dandy In The Underworld (1977) (CDM 0900-516)\12 - Dandy In The Underworld.wav

Pre-gap length 0:00:01.00

Peak level 89.3 %
Extraction speed 3.3 X
Track quality 100.0 %
Test CRC 74FF84CE
Copy CRC 74FF84CE
Cannot be verified as accurate (confidence 4) [88898C45], AccurateRip returned [06721DF4] (AR v2)
Copy OK

Track 13

Filename C:\T.Rex - 2000 - Electric Warrior (1971) & Dandy In The Underworld (1977) (CDM 0900-516)\13 - Crimson Moon.wav

Pre-gap length 0:00:00.37

Peak level 89.3 %
Extraction speed 3.3 X
Track quality 100.0 %
Test CRC 90B96DFA
Copy CRC 90B96DFA
Cannot be verified as accurate (confidence 3) [4E5CC8B0], AccurateRip returned [0D629814] (AR v2)
Copy OK

Track 14

Filename C:\T.Rex - 2000 - Electric Warrior (1971) & Dandy In The Underworld (1977) (CDM 0900-516)\14 - Universe.wav

Pre-gap length 0:00:00.37

Peak level 75.0 %
Extraction speed 0.3 X
Track quality 99.9 %
Test CRC 3C361E53
Copy CRC 3C361E53
Cannot be verified as accurate (confidence 3) [2B361CA2], AccurateRip returned [D276A1A5] (AR v2)
Copy OK

Track 15

Filename C:\T.Rex - 2000 - Electric Warrior (1971) & Dandy In The Underworld (1977) (CDM 0900-516)\15 - I'm A Fool For You Girl.wav

Pre-gap length 0:00:00.37

Peak level 94.6 %
Extraction speed 3.2 X
Track quality 100.0 %
Test CRC DDDA2706
Copy CRC DDDA2706
Cannot be verified as accurate (confidence 3) [00C786CC], AccurateRip returned [EDB82E26] (AR v2)
Copy OK

Track 16

Filename C:\T.Rex - 2000 - Electric Warrior (1971) & Dandy In The Underworld (1977) (CDM 0900-516)\16 - I Love To Boogie.wav

Pre-gap length 0:00:00.37

Peak level 89.4 %
Extraction speed 3.2 X
Track quality 100.0 %
Test CRC 4D2F7F59
Copy CRC 4D2F7F59
Cannot be verified as accurate (confidence 3) [03DB8967], AccurateRip returned [672AC134] (AR v2)
Copy OK

Track 17

Filename C:\T.Rex - 2000 - Electric Warrior (1971) & Dandy In The Underworld (1977) (CDM 0900-516)\17 - Visions Of Domino.wav

Pre-gap length 0:00:00.37

Peak level 79.6 %
Extraction speed 3.2 X
Track quality 100.0 %
Test CRC F88CA101
Copy CRC F88CA101
Cannot be verified as accurate (confidence 3) [98C2B565], AccurateRip returned [F9D379E8] (AR v2)
Copy OK

Track 18

Filename C:\T.Rex - 2000 - Electric Warrior (1971) & Dandy In The Underworld (1977) (CDM 0900-516)\18 - Jason B. Sad.wav

Pre-gap length 0:00:00.37

Peak level 88.7 %
Extraction speed 3.3 X
Track quality 100.0 %
Test CRC 40DD8FC2
Copy CRC 40DD8FC2
Cannot be verified as accurate (confidence 3) [29F58500], AccurateRip returned [251FE85A] (AR v2)
Copy OK

Track 19

Filename C:\T.Rex - 2000 - Electric Warrior (1971) & Dandy In The Underworld (1977) (CDM 0900-516)\19 - Groove A Little.wav

Pre-gap length 0:00:00.37

Peak level 89.4 %
Extraction speed 3.3 X
Track quality 100.0 %
Test CRC CF056BCB
Copy CRC CF056BCB
Cannot be verified as accurate (confidence 3) [6CF52E94], AccurateRip returned [88F577C4] (AR v2)
Copy OK

Track 20

Filename C:\T.Rex - 2000 - Electric Warrior (1971) & Dandy In The Underworld (1977) (CDM 0900-516)\20 - The Soul Of My Suit.wav

Pre-gap length 0:00:00.37

Peak level 88.3 %
Extraction speed 3.1 X
Track quality 99.9 %
Test CRC EB4A87C1
Copy CRC EB4A87C1
Cannot be verified as accurate (confidence 3) [762685C9], AccurateRip returned [6202A76C] (AR v2)
Copy OK

Track 21

Filename C:\T.Rex - 2000 - Electric Warrior (1971) & Dandy In The Underworld (1977) (CDM 0900-516)\21 - Hang-Ups.wav

Pre-gap length 0:00:00.37

Peak level 98.8 %
Extraction speed 3.3 X
Track quality 100.0 %
Test CRC 9D4BE99A
Copy CRC 9D4BE99A
Cannot be verified as accurate (confidence 3) [8B46A673], AccurateRip returned [0B4672DC] (AR v2)
Copy OK

Track 22

Filename C:\T.Rex - 2000 - Electric Warrior (1971) & Dandy In The Underworld (1977) (CDM 0900-516)\22 - Pain And Love.wav

Pre-gap length 0:00:00.37

Peak level 99.8 %
Extraction speed 3.2 X
Track quality 99.9 %
Test CRC B0A9A3A0
Copy CRC B0A9A3A0
Cannot be verified as accurate (confidence 3) [6F3591A7], AccurateRip returned [207B0E8A] (AR v2)
Copy OK

Track 23

Filename C:\T.Rex - 2000 - Electric Warrior (1971) & Dandy In The Underworld (1977) (CDM 0900-516)\23 - Teen Riot Structure.wav

Peak level 89.2 %
Extraction speed 2.3 X
Track quality 100.0 %
Test CRC 8032F9AE
Copy CRC 8032F9AE
Cannot be verified as accurate (confidence 3) [5BBAF67C], AccurateRip returned [AA03E1B4] (AR v2)
Copy OK


No tracks could be verified as accurate
You may have a different pressing from the one(s) in the database

No errors occurred

End of status report

–– CUETools DB Plugin V2.1.3

[CTDB TOCID: 7wZUlvtFWSWwNKKn5bVHvQd8lYU-] found, Submit result: already submitted
[20f2c4f6] (3/5) Accurately ripped
[e5e54f57] (1/5) No match
[56f7b78f] (1/5) No match


==== Log checksum E4D85A09C29738AA8EB656D1E84E3F542AFBB7E8131973E5E11F5E5B9363752B ====

T. Rex - Electric Warrior / Dandy In The Underworld (1971/1977) {2000, 2 Albums on 1 CD}

All thanks go to DillFennel

>>> T. Rex in my Blog <<<

Download from icerbox.com: