Subcategories
Please register here if you want to download anything!

If domain in your address bar is different from the list below
PLEASE LEAVE THAT SITE IMMEDIATELY
❗IT'S A DANGEROUS FAKE❗



Spicy Magazines for Men! ;-)

Tech N9ne - All 6's And 7's (2011) {Strange Music} **[RE-UP]**

Posted By: TestTickles
Tech N9ne - All 6's And 7's (2011) {Strange Music} **[RE-UP]**

Tech N9ne - All 6's And 7's (2011) {Strange Music}
EAC Rip | FLAC with CUE and log | scans | 546 mb
MP3 CBR 320kbps | RAR | 182 mb
Genre: hip-hop, rap

All 6's And 7's is the 2011 album by American rapper Aaron Yates, who was "born" Tech N9ne. All 6's And 7's is mathematically his 11th album, released on his own Strange Music label.

Tech N9ne - All 6's And 7's (2011) {Strange Music} **[RE-UP]**

01. The Pledge
02. Technicians
03. Military (skit)
04. Am I A Psycho? (ft. B.o.B & Hopsin)
05. He’s A Mental Giant
06. Worldwide Choppers (ft. Ceza, JL B.Hood, Uso, Yelawolf, Twista, Busta Rhymes, D-Loc & Twisted Insane)
07. We Miss You Man (Skit)
08. I Love Music (Ft. Kendrick Lamar & Oobergeek)
09. Strangeland
10. Call From Richie (Skit)
11. The Boogieman (Ft. Stokley of Mint Condition & First Degree the D.E.)
12. Cult Leader (Ft. Liz Suwandi)
13. Call From KC Poet Camile (Skit)
14. Fuck Food (Ft. Lil Wayne, T-Pain & Krizz Kaliko)
15. Overtime (Ft. Stevie Stone)
16. Pornographic (Ft. Snoop Dogg, E-40 & Krizz Kaliko)
17. You Owe Like Pookie (Ft. Jay Rock & Kutt Calhoun)
18. Delusional (Ft. Nikkiya)
19. So Lonely (Ft. Blind Fury & Mackenzie O’Guin)
20. If I Could (Ft. Stephen Carpenter & Chino Moreno)
21. Angry Caller (Skit)
22. Love Me Tomorrow (Ft. Big Scoob)
23. Mama Nem
24. Promiseland (Ft. Nikkiya)

Exact Audio Copy V1.1 from 23. June 2015

EAC extraction logfile from 1. November 2016, 6:52

Tech N9ne / All 6's And 7's

Used drive : TEAC DVD-ROM DV-28SW Adapter: 1 ID: 0

Read mode : Secure
Utilize accurate stream : Yes
Defeat audio cache : Yes
Make use of C2 pointers : No

Read offset correction : 6
Overread into Lead-In and Lead-Out : No
Fill up missing offset samples with silence : Yes
Delete leading and trailing silent blocks : No
Null samples used in CRC calculations : Yes
Used interface : Native Win32 interface for Win NT & 2000
Gap handling : Appended to previous track

Used output format : Internal WAV Routines
Sample format : 44.100 Hz; 16 Bit; Stereo


TOC of the extracted CD

Track | Start | Length | Start sector | End sector
––––––––––––––––––––––––––––-
1 | 0:00.00 | 0:42.64 | 0 | 3213
2 | 0:42.64 | 3:52.25 | 3214 | 20638
3 | 4:35.14 | 0:21.46 | 20639 | 22259
4 | 4:56.60 | 4:04.23 | 22260 | 40582
5 | 9:01.08 | 3:54.11 | 40583 | 58143
6 | 12:55.19 | 5:26.32 | 58144 | 82625
7 | 18:21.51 | 0:46.43 | 82626 | 86118
8 | 19:08.19 | 3:46.61 | 86119 | 103129
9 | 22:55.05 | 3:35.22 | 103130 | 119276
10 | 26:30.27 | 0:34.58 | 119277 | 121884
11 | 27:05.10 | 3:51.21 | 121885 | 139230
12 | 30:56.31 | 4:46.40 | 139231 | 160720
13 | 35:42.71 | 0:59.30 | 160721 | 165175
14 | 36:42.26 | 4:55.02 | 165176 | 187302
15 | 41:37.28 | 3:00.39 | 187303 | 200841
16 | 44:37.67 | 3:52.69 | 200842 | 218310
17 | 48:30.61 | 3:28.42 | 218311 | 233952
18 | 51:59.28 | 4:12.44 | 233953 | 252896
19 | 56:11.72 | 3:53.74 | 252897 | 270445
20 | 60:05.71 | 3:27.48 | 270446 | 286018
21 | 63:33.44 | 0:20.70 | 286019 | 287588
22 | 63:54.39 | 3:43.72 | 287589 | 304385
23 | 67:38.36 | 4:22.63 | 304386 | 324098
24 | 72:01.24 | 4:41.11 | 324099 | 345184


Track 1

Filename C:\My Documents\My FLAC\Tech N9ne - All 6's And 7's (2011) [FLAC]\01 - The Pledge (Intro).wav

Pre-gap length 0:00:02.00

Peak level 100.0 %
Extraction speed 0.6 X
Track quality 100.0 %
Test CRC B3DFE890
Copy CRC B3DFE890
Accurately ripped (confidence 18) [E0D333EE] (AR v2)
Copy OK

Track 2

Filename C:\My Documents\My FLAC\Tech N9ne - All 6's And 7's (2011) [FLAC]\02 - Technicians.wav

Peak level 100.0 %
Extraction speed 1.2 X
Track quality 100.0 %
Test CRC 60057DDE
Copy CRC 60057DDE
Accurately ripped (confidence 17) [4DBF3EA1] (AR v2)
Copy OK

Track 3

Filename C:\My Documents\My FLAC\Tech N9ne - All 6's And 7's (2011) [FLAC]\03 - Military (Skit).wav

Peak level 100.0 %
Extraction speed 0.5 X
Track quality 100.0 %
Test CRC D73BECD3
Copy CRC D73BECD3
Accurately ripped (confidence 17) [9C87C7E4] (AR v2)
Copy OK

Track 4

Filename C:\My Documents\My FLAC\Tech N9ne - All 6's And 7's (2011) [FLAC]\04 - Am I A Psycho.wav

Peak level 100.0 %
Extraction speed 1.3 X
Track quality 100.0 %
Test CRC C6DC11E5
Copy CRC C6DC11E5
Accurately ripped (confidence 17) [91B08090] (AR v2)
Copy OK

Track 5

Filename C:\My Documents\My FLAC\Tech N9ne - All 6's And 7's (2011) [FLAC]\05 - He's A Mental Giant.wav

Peak level 100.0 %
Extraction speed 1.4 X
Track quality 100.0 %
Test CRC 39EA386F
Copy CRC 39EA386F
Accurately ripped (confidence 17) [F134188B] (AR v2)
Copy OK

Track 6

Filename C:\My Documents\My FLAC\Tech N9ne - All 6's And 7's (2011) [FLAC]\06 - Worldwide Choppers.wav

Peak level 100.0 %
Extraction speed 1.6 X
Track quality 100.0 %
Test CRC 89F095E9
Copy CRC 89F095E9
Accurately ripped (confidence 17) [DAE5E7A8] (AR v2)
Copy OK

Track 7

Filename C:\My Documents\My FLAC\Tech N9ne - All 6's And 7's (2011) [FLAC]\07 - We Miss You Man (Skit).wav

Peak level 100.0 %
Extraction speed 1.0 X
Track quality 100.0 %
Test CRC ECBA7010
Copy CRC ECBA7010
Accurately ripped (confidence 17) [0081DAD9] (AR v2)
Copy OK

Track 8

Filename C:\My Documents\My FLAC\Tech N9ne - All 6's And 7's (2011) [FLAC]\08 - I Love Music.wav

Peak level 99.3 %
Extraction speed 1.6 X
Track quality 100.0 %
Test CRC 6D89A257
Copy CRC 6D89A257
Accurately ripped (confidence 17) [CCF2F6C8] (AR v2)
Copy OK

Track 9

Filename C:\My Documents\My FLAC\Tech N9ne - All 6's And 7's (2011) [FLAC]\09 - Strangeland.wav

Peak level 99.3 %
Extraction speed 1.7 X
Track quality 100.0 %
Test CRC C0B101B4
Copy CRC C0B101B4
Accurately ripped (confidence 17) [0AABA9FB] (AR v2)
Copy OK

Track 10

Filename C:\My Documents\My FLAC\Tech N9ne - All 6's And 7's (2011) [FLAC]\10 - Call From Richie (Skit).wav

Peak level 61.5 %
Extraction speed 0.9 X
Track quality 100.0 %
Test CRC 10A50AB1
Copy CRC 10A50AB1
Accurately ripped (confidence 17) [EC8B5D6C] (AR v2)
Copy OK

Track 11

Filename C:\My Documents\My FLAC\Tech N9ne - All 6's And 7's (2011) [FLAC]\11 - The Boogieman.wav

Peak level 100.0 %
Extraction speed 1.8 X
Track quality 100.0 %
Test CRC 98230F24
Copy CRC 98230F24
Accurately ripped (confidence 17) [E00324E8] (AR v2)
Copy OK

Track 12

Filename C:\My Documents\My FLAC\Tech N9ne - All 6's And 7's (2011) [FLAC]\12 - Cult Leader.wav

Peak level 99.3 %
Extraction speed 1.9 X
Track quality 100.0 %
Test CRC 848F4495
Copy CRC 848F4495
Accurately ripped (confidence 17) [37FCC2A6] (AR v2)
Copy OK

Track 13

Filename C:\My Documents\My FLAC\Tech N9ne - All 6's And 7's (2011) [FLAC]\13 - Call From KC Poet Camille (Skit).wav

Peak level 52.2 %
Extraction speed 1.0 X
Track quality 99.8 %
Test CRC FC222D47
Copy CRC FC222D47
Accurately ripped (confidence 17) [B0290EB9] (AR v2)
Copy OK

Track 14

Filename C:\My Documents\My FLAC\Tech N9ne - All 6's And 7's (2011) [FLAC]\14 - Fuck Food.wav

Peak level 99.3 %
Extraction speed 2.0 X
Track quality 100.0 %
Test CRC CFA6BA9C
Copy CRC CFA6BA9C
Accurately ripped (confidence 17) [D0D04126] (AR v2)
Copy OK

Track 15

Filename C:\My Documents\My FLAC\Tech N9ne - All 6's And 7's (2011) [FLAC]\15 - Overtime.wav

Peak level 99.3 %
Extraction speed 2.0 X
Track quality 100.0 %
Test CRC 1137A409
Copy CRC 1137A409
Accurately ripped (confidence 17) [EAFED207] (AR v2)
Copy OK

Track 16

Filename C:\My Documents\My FLAC\Tech N9ne - All 6's And 7's (2011) [FLAC]\16 - Pornographic.wav

Peak level 99.3 %
Extraction speed 0.5 X
Track quality 100.0 %
Test CRC F4D29A3A
Copy CRC F4D29A3A
Accurately ripped (confidence 17) [13DFE631] (AR v2)
Copy OK

Track 17

Filename C:\My Documents\My FLAC\Tech N9ne - All 6's And 7's (2011) [FLAC]\17 - You Owe Like Pookie.wav

Peak level 99.7 %
Extraction speed 2.1 X
Track quality 100.0 %
Test CRC B617B186
Copy CRC B617B186
Accurately ripped (confidence 17) [C83F8E29] (AR v2)
Copy OK

Track 18

Filename C:\My Documents\My FLAC\Tech N9ne - All 6's And 7's (2011) [FLAC]\18 - Delusional.wav

Peak level 100.0 %
Extraction speed 2.2 X
Track quality 100.0 %
Test CRC 668B8AA4
Copy CRC 668B8AA4
Accurately ripped (confidence 17) [A3B277F1] (AR v2)
Copy OK

Track 19

Filename C:\My Documents\My FLAC\Tech N9ne - All 6's And 7's (2011) [FLAC]\19 - So Lonely.wav

Peak level 100.0 %
Extraction speed 2.3 X
Track quality 100.0 %
Test CRC DF21AB75
Copy CRC DF21AB75
Accurately ripped (confidence 17) [AAF68BBD] (AR v2)
Copy OK

Track 20

Filename C:\My Documents\My FLAC\Tech N9ne - All 6's And 7's (2011) [FLAC]\20 - If I Could.wav

Peak level 99.3 %
Extraction speed 2.3 X
Track quality 100.0 %
Test CRC 6FDCA6F4
Copy CRC 6FDCA6F4
Accurately ripped (confidence 17) [BE2FCD9A] (AR v2)
Copy OK

Track 21

Filename C:\My Documents\My FLAC\Tech N9ne - All 6's And 7's (2011) [FLAC]\21 - Angry Caller (Skit).wav

Peak level 38.2 %
Extraction speed 0.9 X
Track quality 100.0 %
Test CRC 1F3FD4F4
Copy CRC 1F3FD4F4
Accurately ripped (confidence 17) [A88C1A32] (AR v2)
Copy OK

Track 22

Filename C:\My Documents\My FLAC\Tech N9ne - All 6's And 7's (2011) [FLAC]\22 - Love Me Tomorrow.wav

Peak level 100.0 %
Extraction speed 2.4 X
Track quality 100.0 %
Test CRC EE42B8B7
Copy CRC EE42B8B7
Accurately ripped (confidence 17) [22EF9CE0] (AR v2)
Copy OK

Track 23

Filename C:\My Documents\My FLAC\Tech N9ne - All 6's And 7's (2011) [FLAC]\23 - Mama Nem.wav

Peak level 99.3 %
Extraction speed 2.5 X
Track quality 100.0 %
Test CRC CE83992C
Copy CRC CE83992C
Accurately ripped (confidence 17) [CF291E24] (AR v2)
Copy OK

Track 24

Filename C:\My Documents\My FLAC\Tech N9ne - All 6's And 7's (2011) [FLAC]\24 - Promiseland.wav

Peak level 99.3 %
Extraction speed 2.5 X
Track quality 100.0 %
Test CRC 14A4C554
Copy CRC 14A4C554
Accurately ripped (confidence 18) [DA9C494F] (AR v2)
Copy OK


All tracks accurately ripped

No errors occurred

End of status report

–– CUETools DB Plugin V2.1.6

[CTDB TOCID: _g.e7Kg7g7jvP.Mih7uNZtV0sdc-] found
Submit result: _g.e7Kg7g7jvP.Mih7uNZtV0sdc- has been confirmed
Track | CTDB Status
1 | (35/36) Accurately ripped
2 | (35/36) Accurately ripped
3 | (35/36) Accurately ripped
4 | (35/36) Accurately ripped
5 | (35/36) Accurately ripped
6 | (34/36) Accurately ripped
7 | (35/36) Accurately ripped
8 | (34/36) Accurately ripped
9 | (34/36) Accurately ripped
10 | (35/36) Accurately ripped
11 | (34/36) Accurately ripped
12 | (35/36) Accurately ripped
13 | (35/36) Accurately ripped
14 | (35/36) Accurately ripped
15 | (35/36) Accurately ripped
16 | (34/36) Accurately ripped
17 | (35/36) Accurately ripped
18 | (35/36) Accurately ripped
19 | (34/36) Accurately ripped
20 | (34/36) Accurately ripped
21 | (35/36) Accurately ripped
22 | (33/36) Accurately ripped
23 | (33/36) Accurately ripped
24 | (33/36) Accurately ripped


==== Log checksum E33E467CA2EC3944613583F2F7EAC063DCE6776AD7F0A39DCF7F54D457DC9DD8 ====


Tech N9ne - All 6's And 7's (2011) {Strange Music} **[RE-UP]**