Subcategories
Tags
Language
Tags

Tall Paul vs. INXS - Precious Heart (Australia CD5) (2001) {Bang On!}

Posted By: TestTickles
Tall Paul vs. INXS - Precious Heart (Australia CD5) (2001) {Bang On!}

Tall Paul vs. INXS - Precious Heart (Australia CD5) (2001) {Bang On!}
EAC Rip | FLAC with CUE and log | scans | 171 mb
MP3 CBR 320kbps | RAR | 62 mb
Genre: electronic pop, trance

"Precious Heart" is a remix of INXS' "Never Tear Us Apart" but done by Tall Paul. This CD5 released in INXS' home nation of Australia features remixes by others as well. This was released in 2001 by Bang On!

Tall Paul vs. INXS - Precious Heart (Australia CD5) (2001) {Bang On!}

1. Precious Heart (Radio Edit) (3:36)
2. Precious Heart (Original Mix) (7:40)
3. Precious Heart (Riva Mix) (7:40)
4. Precious Heart (Marc O'Tool Remix) (8:41)
5. Precious Heart (Lush Mix) (8:42)

Exact Audio Copy V0.99 prebeta 4 from 23. January 2008

EAC extraction logfile from 15. March 2010, 11:29

Tall Paul vs. INXS / Precious Heart (Australia CD5)

Used drive : SONY CD-RW CRX195E1 Adapter: 1 ID: 0

Read mode : Secure
Utilize accurate stream : Yes
Defeat audio cache : Yes
Make use of C2 pointers : No

Read offset correction : 12
Overread into Lead-In and Lead-Out : No
Fill up missing offset samples with silence : Yes
Delete leading and trailing silent blocks : No
Null samples used in CRC calculations : Yes
Used interface : Native Win32 interface for Win NT & 2000
Gap handling : Appended to previous track

Used output format : User Defined Encoder
Selected bitrate : 128 kBit/s
Quality : High
Add ID3 tag : No
Command line compressor : C:\Program Files\Exact Audio Copy\Flac\flac.exe
Additional command line options : -V -8 -T "artist=%a" -T "title=%t" -T "album=%g" -T "date=%y" -T "tracknumber=%n" -T "genre=%m" %s


TOC of the extracted CD

Track | Start | Length | Start sector | End sector
––––––––––––––––––––––––––––-
1 | 0:00.00 | 3:36.25 | 0 | 16224
2 | 3:36.25 | 7:40.37 | 16225 | 50761
3 | 11:16.62 | 7:39.68 | 50762 | 85254
4 | 18:56.55 | 8:40.57 | 85255 | 124311
5 | 27:37.37 | 8:41.62 | 124312 | 163448


Track 1

Filename C:\cuntfist\FLAC\Tall Paul vs. INXS - Precious Heart (Australia CD5) (2001) [FLAC] {Bang On!}\01 - Precious Heart (Radio Edit).wav

Pre-gap length 0:00:02.00

Peak level 99.9 %
Track quality 100.0 %
Test CRC A22CA7F7
Copy CRC A22CA7F7
Accurately ripped (confidence 1) [57D3AB44]
Copy OK

Track 2

Filename C:\cuntfist\FLAC\Tall Paul vs. INXS - Precious Heart (Australia CD5) (2001) [FLAC] {Bang On!}\02 - Precious Heart (Original Mix).wav

Pre-gap length 0:00:01.04

Peak level 99.9 %
Track quality 100.0 %
Test CRC A2071FBB
Copy CRC A2071FBB
Accurately ripped (confidence 1) [87A17A79]
Copy OK

Track 3

Filename C:\cuntfist\FLAC\Tall Paul vs. INXS - Precious Heart (Australia CD5) (2001) [FLAC] {Bang On!}\03 - Precious Heart (Riva Mix).wav

Pre-gap length 0:00:01.16

Peak level 99.9 %
Track quality 99.9 %
Test CRC 87D8DFC3
Copy CRC 87D8DFC3
Accurately ripped (confidence 1) [0FFCE449]
Copy OK

Track 4

Filename C:\cuntfist\FLAC\Tall Paul vs. INXS - Precious Heart (Australia CD5) (2001) [FLAC] {Bang On!}\04 - Precious Heart (Marc O'Tool Remix).wav

Pre-gap length 0:00:01.16

Peak level 99.9 %
Track quality 100.0 %
Test CRC 8FC5C116
Copy CRC 8FC5C116
Cannot be verified as accurate (confidence 1) [E38813B3], AccurateRip returned [1E5BCCE7]
Copy OK

Track 5

Filename C:\cuntfist\FLAC\Tall Paul vs. INXS - Precious Heart (Australia CD5) (2001) [FLAC] {Bang On!}\05 - Precious Heart (Lush Mix).wav

Pre-gap length 0:00:01.36

Peak level 99.9 %
Track quality 100.0 %
Test CRC A39611CA
Copy CRC A39611CA
Accurately ripped (confidence 1) [6B5EB33C]
Copy OK


4 track(s) accurately ripped
1 track(s) could not be verified as accurate

Some tracks could not be verified as accurate

No errors occurred

End of status report


Tall Paul vs. INXS - Precious Heart (Australia CD5) (2001) {Bang On!}


Thank you to the original uploader.