Tags
Language
Tags

The Sons - s/t (1969) {2005 Capitol Japan}

Posted By: TestTickles
The Sons - s/t (1969) {2005 Capitol Japan}

The Sons - s/t (1969) {2005 Capitol Japan}
WEB Rip | FLAC with dBPoweramp | scans | 184 mb
MP3 CBR 320kbps | RAR | 114 mb
Genre: psychedelic rock

This is the second album released in 1969 by San Francisco psychedelic rock band The Sons Of Champlin, who shortened their name to The Sons for this presentation. This comes from the 2005 remaster reissued by Capitol as part of the Summer Of Love: Capitol Psychedelic Collection series and is a mono mix.

The Sons - s/t (1969) {2005 Capitol Japan}

1. Love Of A Woman (7:54)
2. Terry's Tune (3:47)
3. Boomp Boomp Chop (10:08)
4. Why Do People Run From The Rain? (3:29)
5. It's Time (3:57)
6. Country Girl (1:49)
7. You Can Fly (11:33)

Bill Champlin - guitar, keyboards, saxophone, vocals
Jim Beem - trumpet
Bill Bowen - drums
Tim Caine - saxophone
Terry Haggerty - guitar, vocals
Geoffrey Palmer - bass, keyboards, saxophone, vocals
Al Strong - bass

dBpoweramp Release 14.3 Digital Audio Extraction Log from maandag 18 june 2014 09:52

Drive & Settings
––––––––

Ripping with drive 'c: [MOSER BAER DH-22A8S Adapter: 2 ID: 1]', Drive offset: 667, Overread Lead-in/out: No
AccurateRip: Active, Using C2: No, Cache: 1024 KB, FUA Cache Invalidate: No
Pass 1 Drive Speed: Max, Pass 2 Drive Speed: Max
Ultra:: Vary Drive Speed: Yes, Min Passes: 3, Max Passes: 6, Finish After Clean Passes: 2
Bad Sector Re-rip:: Drive Speed: Max, Maximum Re-reads: 34

Encoder: FLAC -compression-level-8 -verify
DSP Effects / Actions: -dspeffect1="Playlist Writer=-type={qt}m3u{qt} -titles={qt}[title]{qt} -writepath={qt}C:\Users\Cor\Music\{qt} -filename={qt}[artist] - [album]{qt}" -dspeffect2="ID Tag Processing=-case={qt}0{qt} -exportart={qt}(none){qt} -importart={qt}(none){qt} -maxart={qt}(any){qt}"

Extraction Log
–––––––

Track 1: Ripped LBA 0 to 35600 (7:54) in 0:23. Filename: C:\cuntfist\FLAC\The Sons - s-t (1969) [FLAC] {2005 Capitol Japan}\01 - Love Of A Woman.flac
AccurateRip: Accurate (confidence 1) [Pass 1]
CRC32: 3A73EA78 AccurateRip CRC: C8DE44FF (CRCv2) [DiscID: 007-000baaa2-0044ac1f-5d0a0007-1]
AccurateRip Verified Confidence 1 [CRCv2 c8de44ff]
AccurateRip Verified Confidence 1 [CRCv1 8b1c60cb]
AccurateRip Verified Confidence 1 [CRCv2 c8de44ff]
AccurateRip Verified Confidence 1 [CRCv1 8b1c60cb]

Track 2: Ripped LBA 35600 to 52677 (3:47) in 0:09. Filename: C:\cuntfist\FLAC\The Sons - s-t (1969) [FLAC] {2005 Capitol Japan}\02 - Terry's Tune.flac
AccurateRip: Accurate (confidence 1) [Pass 1]
CRC32: 37D737C9 AccurateRip CRC: 864DCE7D (CRCv2) [DiscID: 007-000baaa2-0044ac1f-5d0a0007-2]
AccurateRip Verified Confidence 1 [CRCv2 864dce7d]
AccurateRip Verified Confidence 1 [CRCv1 eafcd931]
AccurateRip Verified Confidence 1 [CRCv2 864dce7d]
AccurateRip Verified Confidence 1 [CRCv1 eafcd931]

Track 3: Ripped LBA 52677 to 98322 (10:08) in 0:23. Filename: C:\cuntfist\FLAC\The Sons - s-t (1969) [FLAC] {2005 Capitol Japan}\03 - Boomp Boomp Chomp.flac
AccurateRip: Accurate (confidence 1) [Pass 1]
CRC32: DE457A20 AccurateRip CRC: A3BCE0B4 (CRCv2) [DiscID: 007-000baaa2-0044ac1f-5d0a0007-3]
AccurateRip Verified Confidence 1 [CRCv2 a3bce0b4]
AccurateRip Verified Confidence 1 [CRCv1 62ac0e67]
AccurateRip Verified Confidence 1 [CRCv2 a3bce0b4]
AccurateRip Verified Confidence 1 [CRCv1 62ac0e67]

Track 4: Ripped LBA 98322 to 114047 (3:29) in 0:07. Filename: C:\cuntfist\FLAC\The Sons - s-t (1969) [FLAC] {2005 Capitol Japan}\04 - Why Do People Run From The Rain¿.flac
AccurateRip: Accurate (confidence 1) [Pass 1]
CRC32: A7645C91 AccurateRip CRC: DF6CDDB8 (CRCv2) [DiscID: 007-000baaa2-0044ac1f-5d0a0007-4]
AccurateRip Verified Confidence 1 [CRCv2 df6cddb8]
AccurateRip Verified Confidence 1 [CRCv1 237fc92f]
AccurateRip Verified Confidence 1 [CRCv2 df6cddb8]
AccurateRip Verified Confidence 1 [CRCv1 237fc92f]

Track 5: Ripped LBA 114047 to 131835 (3:57) in 0:07. Filename: C:\cuntfist\FLAC\The Sons - s-t (1969) [FLAC] {2005 Capitol Japan}\05 - It's Time.flac
AccurateRip: Accurate (confidence 1) [Pass 1]
CRC32: 6355A06D AccurateRip CRC: E64AA98F (CRCv2) [DiscID: 007-000baaa2-0044ac1f-5d0a0007-5]
AccurateRip Verified Confidence 1 [CRCv2 e64aa98f]
AccurateRip Verified Confidence 1 [CRCv1 9cbf35cf]
AccurateRip Verified Confidence 1 [CRCv2 e64aa98f]
AccurateRip Verified Confidence 1 [CRCv1 9cbf35cf]

Track 6: Ripped LBA 131835 to 140030 (1:49) in 0:03. Filename: C:\cuntfist\FLAC\The Sons - s-t (1969) [FLAC] {2005 Capitol Japan}\06 - Country Girl.flac
AccurateRip: Accurate (confidence 1) [Pass 1]
CRC32: 6062CF4E AccurateRip CRC: 6EA664C4 (CRCv2) [DiscID: 007-000baaa2-0044ac1f-5d0a0007-6]
AccurateRip Verified Confidence 1 [CRCv2 6ea664c4]
AccurateRip Verified Confidence 1 [CRCv1 a16fad1d]
AccurateRip Verified Confidence 1 [CRCv2 6ea664c4]
AccurateRip Verified Confidence 1 [CRCv1 a16fad1d]

Track 7: Ripped LBA 140030 to 192067 (11:33) in 0:20. Filename: C:\cuntfist\FLAC\The Sons - s-t (1969) [FLAC] {2005 Capitol Japan}\07 - You Can Fly.flac
AccurateRip: Accurate (confidence 1) [Pass 1]
CRC32: 45483092 AccurateRip CRC: 359ED9A7 (CRCv2) [DiscID: 007-000baaa2-0044ac1f-5d0a0007-7]
AccurateRip Verified Confidence 1 [CRCv2 359ed9a7]
AccurateRip Verified Confidence 1 [CRCv1 3d80a7fc]
AccurateRip Verified Confidence 1 [CRCv2 359ed9a7]
AccurateRip Verified Confidence 1 [CRCv1 3d80a7fc]

–––––––

7 Tracks Ripped Accurately


The Sons - s/t (1969) {2005 Capitol Japan}


Thank you to the original uploader.