Subcategories

The 5th Dimension - The Age Of Aquarius (1969) {2000 Buddha/Arista/BMG}

Posted By: TestTickles
The 5th Dimension - The Age Of Aquarius (1969) {2000 Buddha/Arista/BMG}

The 5th Dimension - The Age Of Aquarius (1969) {2000 Buddha/Arista/BMG}
EAC Rip | FLAC with CUE and LOG | scans | 296 mb
MP3 CBR 320 kbps | RAR | 109 mb
Genre: R&B, soul, pop

The Age Of Aquariu is the 1969 album by American pop soul vocal group The 5th Dimension. This is the 2000 American remaster released by Buddha/Arista via BMG, featuring a bonus track.

The 5th Dimension - The Age Of Aquarius (1969) {2000 Buddha/Arista/BMG}

01. Aquarius/Let The Sunshine In (The Flesh Failures)
02. Blowing Away
03. Skinny Man
04. Wedding Bell Blues
05. Don'tcha Hear Me Callin' To Ya
06. The Hideaway
07. Workin' On A Groovy Thing
08. Let It Be Me
09. Sunshine Of Your Love
10. The Winds Of Heaven
11. Those Were The Days
12. Let The Sunshine In (Reprise)
13. Chissa Se Tornera (Who Knows If He Will Return) (Bonus Track)

Exact Audio Copy V0.99 prebeta 5 from 4. May 2009

EAC extraction logfile from 18. April 2010, 05:27

The 5th Dimension / The Age Of Aquarius

Used drive : SAMSUNG CD-ROM SC-148A Adapter: 0 ID: 1

Read mode : Secure
Utilize accurate stream : Yes
Defeat audio cache : Yes
Make use of C2 pointers : No

Read offset correction : 12
Overread into Lead-In and Lead-Out : No
Fill up missing offset samples with silence : Yes
Delete leading and trailing silent blocks : No
Null samples used in CRC calculations : Yes
Used interface : Native Win32 interface for Win NT & 2000
Gap handling : Appended to previous track

Used output format : User Defined Encoder
Selected bitrate : 768 kBit/s
Quality : High
Add ID3 tag : No
Command line compressor : C:\Program Files\Exact Audio Copy\FLAC\FLAC.EXE
Additional command line options : -6 -V -T "ARTIST=%a" -T "TITLE=%t" -T "ALBUM=%g" -T "DATE=%y" -T "TRACKNUMBER=%n" -T "GENRE=%m" -T "COMMENT=%e" %s -o %d


TOC of the extracted CD

Track | Start | Length | Start sector | End sector
––––––––––––––––––––––––––––-
1 | 0:00.00 | 4:51.42 | 0 | 21866
2 | 4:51.42 | 2:32.40 | 21867 | 33306
3 | 7:24.07 | 2:51.38 | 33307 | 46169
4 | 10:15.45 | 2:44.30 | 46170 | 58499
5 | 13:00.00 | 3:56.62 | 58500 | 76261
6 | 16:56.62 | 2:45.68 | 76262 | 88704
7 | 19:42.55 | 3:10.47 | 88705 | 103001
8 | 22:53.27 | 3:54.15 | 103002 | 120566
9 | 26:47.42 | 3:18.25 | 120567 | 135441
10 | 30:05.67 | 3:14.35 | 135442 | 150026
11 | 33:20.27 | 3:03.70 | 150027 | 163821
12 | 36:24.22 | 1:29.30 | 163822 | 170526
13 | 37:53.52 | 3:00.08 | 170527 | 184034


Track 1

Filename C:\cuntfist\FLAC\The 5th Dimension - The Age Of Aquarius (1969) [FLAC] {2000 Buddha, Arista, BMG}\01 - Aquarius, Let The Sunshine In (The Flesh Failures).wav

Pre-gap length 0:00:02.00

Peak level 97.7 %
Track quality 99.6 %
Test CRC 7D9923C7
Copy CRC 7D9923C7
Cannot be verified as accurate (confidence 4) [0369FBA5], AccurateRip returned [A5581963]
Copy OK

Track 2

Filename C:\cuntfist\FLAC\The 5th Dimension - The Age Of Aquarius (1969) [FLAC] {2000 Buddha, Arista, BMG}\02 - Blowing Away.wav

Pre-gap length 0:00:02.20

Peak level 98.8 %
Track quality 100.0 %
Test CRC DAA8E53C
Copy CRC DAA8E53C
Cannot be verified as accurate (confidence 4) [A7C0424C], AccurateRip returned [5592A9FE]
Copy OK

Track 3

Filename C:\cuntfist\FLAC\The 5th Dimension - The Age Of Aquarius (1969) [FLAC] {2000 Buddha, Arista, BMG}\03 - Skinny Man.wav

Pre-gap length 0:00:01.52

Peak level 98.8 %
Track quality 100.0 %
Test CRC 7A5EE368
Copy CRC 7A5EE368
Cannot be verified as accurate (confidence 4) [E2E59F0C], AccurateRip returned [BB798DA0]
Copy OK

Track 4

Filename C:\cuntfist\FLAC\The 5th Dimension - The Age Of Aquarius (1969) [FLAC] {2000 Buddha, Arista, BMG}\04 - Wedding Bell Blues.wav

Pre-gap length 0:00:02.08

Peak level 97.7 %
Track quality 100.0 %
Test CRC 488F911D
Copy CRC 488F911D
Cannot be verified as accurate (confidence 4) [0767D762], AccurateRip returned [2CC0B9CA]
Copy OK

Track 5

Filename C:\cuntfist\FLAC\The 5th Dimension - The Age Of Aquarius (1969) [FLAC] {2000 Buddha, Arista, BMG}\05 - Don'tcha Hear Me Callin' To Ya.wav

Pre-gap length 0:00:01.68

Peak level 97.7 %
Track quality 100.0 %
Test CRC 0F0BCE5E
Copy CRC 0F0BCE5E
Cannot be verified as accurate (confidence 4) [BD5FC8DB], AccurateRip returned [7E59C9CD]
Copy OK

Track 6

Filename C:\cuntfist\FLAC\The 5th Dimension - The Age Of Aquarius (1969) [FLAC] {2000 Buddha, Arista, BMG}\06 - The Hideaway.wav

Pre-gap length 0:00:02.25

Peak level 98.8 %
Track quality 100.0 %
Test CRC F405176A
Copy CRC F405176A
Cannot be verified as accurate (confidence 4) [2480D731], AccurateRip returned [E5280441]
Copy OK

Track 7

Filename C:\cuntfist\FLAC\The 5th Dimension - The Age Of Aquarius (1969) [FLAC] {2000 Buddha, Arista, BMG}\07 - Workin' On A Groovy Thing.wav

Pre-gap length 0:00:01.48

Peak level 97.7 %
Track quality 100.0 %
Test CRC F0E2A602
Copy CRC F0E2A602
Cannot be verified as accurate (confidence 4) [C9818BD0], AccurateRip returned [1DDDBF48]
Copy OK

Track 8

Filename C:\cuntfist\FLAC\The 5th Dimension - The Age Of Aquarius (1969) [FLAC] {2000 Buddha, Arista, BMG}\08 - Let It Be Me.wav

Pre-gap length 0:00:01.57

Peak level 97.7 %
Track quality 100.0 %
Test CRC 3E143309
Copy CRC 3E143309
Cannot be verified as accurate (confidence 4) [7DB251CF], AccurateRip returned [FC7AF8C9]
Copy OK

Track 9

Filename C:\cuntfist\FLAC\The 5th Dimension - The Age Of Aquarius (1969) [FLAC] {2000 Buddha, Arista, BMG}\09 - Sunshine Of Your Love.wav

Pre-gap length 0:00:01.72

Peak level 98.8 %
Track quality 100.0 %
Test CRC 9F31A786
Copy CRC 9F31A786
Cannot be verified as accurate (confidence 4) [6F5A2968], AccurateRip returned [4544B1C2]
Copy OK

Track 10

Filename C:\cuntfist\FLAC\The 5th Dimension - The Age Of Aquarius (1969) [FLAC] {2000 Buddha, Arista, BMG}\10 - The Winds Of Heaven.wav

Pre-gap length 0:00:02.22

Peak level 97.7 %
Track quality 100.0 %
Test CRC 26C7CCC8
Copy CRC 26C7CCC8
Cannot be verified as accurate (confidence 4) [B437D8C4], AccurateRip returned [757EE010]
Copy OK

Track 11

Filename C:\cuntfist\FLAC\The 5th Dimension - The Age Of Aquarius (1969) [FLAC] {2000 Buddha, Arista, BMG}\11 - Those Were The Days.wav

Pre-gap length 0:00:01.57

Peak level 98.8 %
Track quality 99.9 %
Test CRC C323F6BB
Copy CRC C323F6BB
Cannot be verified as accurate (confidence 4) [EDE1E863], AccurateRip returned [C4324D1B]
Copy OK

Track 12

Filename C:\cuntfist\FLAC\The 5th Dimension - The Age Of Aquarius (1969) [FLAC] {2000 Buddha, Arista, BMG}\12 - Let The Sunshine In (Reprise).wav

Pre-gap length 0:00:00.22

Peak level 98.8 %
Track quality 100.0 %
Test CRC C1A123DF
Copy CRC C1A123DF
Cannot be verified as accurate (confidence 4) [B0FFEE00], AccurateRip returned [1AF4392C]
Copy OK

Track 13

Filename C:\cuntfist\FLAC\The 5th Dimension - The Age Of Aquarius (1969) [FLAC] {2000 Buddha, Arista, BMG}\13 - Chissa Se Tornera (Who Knows If He Will Return) (Bonus Track).wav

Pre-gap length 0:00:01.67

Peak level 97.7 %
Track quality 99.7 %
Test CRC 3ED32E1B
Copy CRC 3ED32E1B
Cannot be verified as accurate (confidence 4) [159F8BBC], AccurateRip returned [9754AACC]
Copy OK


No tracks could be verified as accurate
You may have a different pressing from the one(s) in the database

No errors occurred

End of status report


The 5th Dimension - The Age Of Aquarius (1969) {2000 Buddha/Arista/BMG}


Thank you to the original uploader.