Subcategories

The Barry Goldberg/Goldberg-Miller Blues Band - 1965-66 (Blowing My Mind Plus) (2003) {Acadia}

Posted By: TestTickles
The Barry Goldberg/Goldberg-Miller Blues Band - 1965-66 (Blowing My Mind Plus) (2003) {Acadia}

The Barry Goldberg/Goldberg-Miller Blues Band - 1965-66 (Blowing My Mind Plus) (2003) {Acadia}
EAC Rip | FLAC with CUE and LOG | scans | 264 mb
MP3 CBR 320 kbps | RAR | 105 mb
Genre: blues rock

B1965-66 (Blowing My Mind Plus) is a 2003 compilation uniting the works of The Goldberg-Miller Blues Band and The Barry Goldberg Blues Band. This was released on the Acadia label.

The Barry Goldberg/Goldberg-Miller Blues Band - 1965-66 (Blowing My Mind Plus) (2003) {Acadia}

01. The Goldberg-Miller Blues Band - The Mother Song
02. The Goldberg-Miller Blues Band - More Soul, Than Soulful
03. The Barry Goldberg Blues Band - Gettin' It Down
04. The Barry Goldberg Blues Band - Mean Old World
05. The Barry Goldberg Blues Band - Twice A Man
06. The Barry Goldberg Blues Band - Whole Lotta Shakin' Goin' On
07. The Barry Goldberg Blues Band - Big Boss Man
08. The Barry Goldberg Blues Band - Blowing My Mind
09. The Barry Goldberg Blues Band - That'll Be The Day
10. The Barry Goldberg Blues Band - Can't Stand To See You Go
11. The Barry Goldberg Blues Band - Put Me Down
12. The Barry Goldberg Blues Band - Think
13. The Barry Goldberg Blues Band - Ginger Man

Exact Audio Copy V0.99 prebeta 4 from 23. January 2008

Отчёт EAC об извлечении, выполненном 10. январь 2011, 11:18

The Barry Goldberg, Goldberg-Miller Blues Band / 1965-66 (Blowing My Mind Plus)

Дисковод: Optiarc DVD RW AD-7200A Adapter: 0 ID: 1

Режим чтения : Достоверность
Использование точного потока : Да
Отключение кэша аудио : Да
Использование указателей C2 : Нет

Коррекция смещения при чтении : 48
Способность читать области Lead-in и Lead-out : Нет
Заполнение пропущенных сэмплов тишиной : Да
Удаление блоков с тишиной в начале и конце : Нет
При вычислениях CRC использовались нулевые сэмплы : Да
Интерфейс : Встроенный Win32-интерфейс для Win NT/2000

Выходной формат : Пользовательский кодировщик
Выбранный битрейт : 128 kBit/s
Качество : Высокий
Добавление ID3-тэга : Нет
Утилита сжатия : C:\Program Files\Exact Audio Copy\wavpack.exe
Дополнительные параметры : -w "Artist=%a" -w "Title=%t" -w "Album=%g" -w "Year=%y" -w "Track=%n" -w "Genre=%m" -h %s %d

TOC извлечённого CD

Трек | Старт | Длительность | Начальный сектор | Конечный сектор
––––––––––––––––––––––––––––––––––-
1 | 0:00.00 | 2:58.36 | 0 | 13385
2 | 2:58.36 | 3:13.08 | 13386 | 27868
3 | 6:11.44 | 2:09.34 | 27869 | 37577
4 | 8:21.03 | 3:52.21 | 37578 | 54998
5 | 12:13.24 | 2:29.16 | 54999 | 66189
6 | 14:42.40 | 2:38.65 | 66190 | 78104
7 | 17:21.30 | 2:59.04 | 78105 | 91533
8 | 20:20.34 | 2:58.04 | 91534 | 104887
9 | 23:18.38 | 2:23.35 | 104888 | 115647
10 | 25:41.73 | 2:26.04 | 115648 | 126601
11 | 28:08.02 | 1:55.32 | 126602 | 135258
12 | 30:03.34 | 2:38.43 | 135259 | 147151
13 | 32:42.02 | 1:46.64 | 147152 | 155165

Характеристики диапазона извлечения и сообщения об ошибках

Выбранный диапазон

Имя файла C:\cuntfist\FLAC\The Barry Goldberg, Goldberg-Miller Blues Band ‎- 1965-66 (Blowing My Mind Plus) (2003) [FLAC] {Acadia}\The Barry Goldberg, Goldberg-Miller Blues Band - 1965-66 (Blowing My Mind Plus).wav

Пиковый уровень 100.0 %
Качество диапазона 100.0 %
CRC копии 8FE5293D
Копирование… OK

Ошибок не произошло

AccurateRip: сводка

Трек 1 нет в базе данных
Трек 2 нет в базе данных
Трек 3 нет в базе данных
Трек 4 нет в базе данных
Трек 5 нет в базе данных
Трек 6 нет в базе данных
Трек 7 нет в базе данных
Трек 8 нет в базе данных
Трек 9 нет в базе данных
Трек 10 нет в базе данных
Трек 11 нет в базе данных
Трек 12 нет в базе данных
Трек 13 нет в базе данных

Ни одного трека нет в базе AccurateRip

Конец отчёта


The Barry Goldberg/Goldberg-Miller Blues Band - 1965-66 (Blowing My Mind Plus) (2003) {Acadia}


Thank you to the original uploader.