Subcategories

The Barry Goldberg Reunion - There's No Hole In My Soul (1968) {1992 One Way}

Posted By: TestTickles
The Barry Goldberg Reunion - There's No Hole In My Soul (1968) {1992 One Way}

The Barry Goldberg Reunion - There's No Hole In My Soul (1968) {1992 One Way}
EAC Rip | FLAC with CUE and LOG | scans | 260 mb
MP3 CBR 320 kbps | RAR | 83 mb
Genre: blues rock

There's No Hole In My Soul is the 1968 album by The Barry Goldberg Reunion. This is taken from the 1992 reissue/remaster released by the One Way label.

The Barry Goldberg Reunion - There's No Hole In My Soul (1968) {1992 One Way}

01. Sitting In Circles (3:40)
02. Hole In My Pocket (2:45)
03. It Hurts Me Too (4:10)
04. Fool On A Hill (3:25)
05. Capricorn Blues (1:55)
06. Another Day (3:25)
07. Sugar Coated Love (2:35)
08. Strung And Young (3:15)
09. I Think I'm Gonna Cry (3:25)
10. The Answers In Your Head (3:25)

Exact Audio Copy V1.0 beta 1 from 15. November 2010

EAC extraction logfile from 24. March 2014, 14:00

The Barry Goldberg Reunion / There's No Hole In My Soul

Used drive : TSSTcorpCDDVDW SH-S223C Adapter: 3 ID: 0

Read mode : Burst

Read offset correction : 697
Overread into Lead-In and Lead-Out : No
Fill up missing offset samples with silence : Yes
Delete leading and trailing silent blocks : No
Null samples used in CRC calculations : Yes
Used interface : Native Win32 interface for Win NT & 2000
Gap handling : Appended to previous track

Used output format : User Defined Encoder
Selected bitrate : 256 kBit/s
Quality : High
Add ID3 tag : No
Command line compressor : C:\Program Files\Exact Audio Copy\FLAC\FLAC.EXE
Additional command line options : -6 -V -T "ARTIST=%a" -T "TITLE=%t" -T "ALBUM=%g" -T "DATE=%y" -T "TRACKNUMBER=%n" -T "GENRE=%m" -T "COMMENT=%e" %j–picture="%i"%j %s -o %d


TOC of the extracted CD

Track | Start | Length | Start sector | End sector
––––––––––––––––––––––––––––-
1 | 0:00.00 | 3:45.20 | 0 | 16894
2 | 3:45.20 | 2:54.50 | 16895 | 29994
3 | 6:39.70 | 4:17.02 | 29995 | 49271
4 | 10:56.72 | 3:25.58 | 49272 | 64704
5 | 14:22.55 | 2:05.40 | 64705 | 74119
6 | 16:28.20 | 3:34.67 | 74120 | 90236
7 | 20:03.12 | 2:42.33 | 90237 | 102419
8 | 22:45.45 | 3:22.40 | 102420 | 117609
9 | 26:08.10 | 3:27.30 | 117610 | 133164
10 | 29:35.40 | 3:25.10 | 133165 | 148549


Track 1

Filename C:\cuntfist\FLAC\The Barry Goldberg Reunion - There's No Hole In My Soul (1968) [FLAC] {1992 One Way}\01 - Sitting In Circles.wav

Pre-gap length 0:00:02.00

Peak level 82.9 %
Extraction speed 10.4 X
Copy CRC F8B0FD18
Track not present in AccurateRip database
Copy OK

Track 2

Filename C:\cuntfist\FLAC\The Barry Goldberg Reunion - There's No Hole In My Soul (1968) [FLAC] {1992 One Way}\02 - Hole In My Pocket.wav

Pre-gap length 7:00:41.12

Peak level 65.7 %
Extraction speed 20.4 X
Copy CRC FEB80572
Track not present in AccurateRip database
Copy OK

Track 3

Filename C:\cuntfist\FLAC\The Barry Goldberg Reunion - There's No Hole In My Soul (1968) [FLAC] {1992 One Way}\03 - It Hurts Me Too.wav

Pre-gap length 9:22:34.45

Peak level 73.3 %
Extraction speed 22.0 X
Copy CRC 539D62E6
Track not present in AccurateRip database
Copy OK

Track 4

Filename C:\cuntfist\FLAC\The Barry Goldberg Reunion - There's No Hole In My Soul (1968) [FLAC] {1992 One Way}\04 - Fool On A Hill.wav

Pre-gap length 3:12:23.59

Peak level 66.1 %
Extraction speed 22.0 X
Copy CRC CFCFF51C
Track not present in AccurateRip database
Copy OK

Track 5

Filename C:\cuntfist\FLAC\The Barry Goldberg Reunion - There's No Hole In My Soul (1968) [FLAC] {1992 One Way}\05 - Capricorn Blues.wav

Pre-gap length 8:58:23.60

Peak level 82.6 %
Extraction speed 24.4 X
Copy CRC 9C39A9B6
Track not present in AccurateRip database
Copy OK

Track 6

Filename C:\cuntfist\FLAC\The Barry Goldberg Reunion - There's No Hole In My Soul (1968) [FLAC] {1992 One Way}\06 - Another Day.wav

Pre-gap length 4:32:36.60

Peak level 92.8 %
Extraction speed 24.2 X
Copy CRC 2C6DE2DF
Track not present in AccurateRip database
Copy OK

Track 7

Filename C:\cuntfist\FLAC\The Barry Goldberg Reunion - There's No Hole In My Soul (1968) [FLAC] {1992 One Way}\07 - Sugar Coated Love.wav

Peak level 71.4 %
Extraction speed 26.1 X
Copy CRC 119D93A8
Track not present in AccurateRip database
Copy OK

Track 8

Filename C:\cuntfist\FLAC\The Barry Goldberg Reunion - There's No Hole In My Soul (1968) [FLAC] {1992 One Way}\08 - Strung And Young.wav

Pre-gap length 9:46:12.72

Peak level 78.2 %
Extraction speed 26.2 X
Copy CRC 37B0EFE5
Track not present in AccurateRip database
Copy OK

Track 9

Filename C:\cuntfist\FLAC\The Barry Goldberg Reunion - There's No Hole In My Soul (1968) [FLAC] {1992 One Way}\09 - I Think I'm Gonna Cry.wav

Pre-gap length 7:28:08.50

Peak level 57.1 %
Extraction speed 28.2 X
Copy CRC 6373394E
Track not present in AccurateRip database
Copy OK

Track 10

Filename C:\cuntfist\FLAC\The Barry Goldberg Reunion - There's No Hole In My Soul (1968) [FLAC] {1992 One Way}\10 - The Answers In Your Head.wav

Pre-gap length 3:49:53.02

Peak level 80.6 %
Extraction speed 28.2 X
Copy CRC 70640D31
Track not present in AccurateRip database
Copy OK


None of the tracks are present in the AccurateRip database

No errors occurred

End of status report

==== Log checksum 86782BD310181B63CAECB07ACF07972A535954079BF2D78CECB09DD02B704615 ====


The Barry Goldberg Reunion - There's No Hole In My Soul (1968) {1992 One Way}


Thank you to the original uploader.