Tags
Language
Tags
June 2024
Su Mo Tu We Th Fr Sa
26 27 28 29 30 31 1
2 3 4 5 6 7 8
9 10 11 12 13 14 15
16 17 18 19 20 21 22
23 24 25 26 27 28 29
30 1 2 3 4 5 6

The League Unlimited Orchestra - Love And Dancing (1982) {1984 Virgin}

Posted By: TestTickles
The League Unlimited Orchestra - Love And Dancing (1982) {1984 Virgin}

The League Unlimited Orchestra - Love And Dancing (1982) {1984 Virgin}
EAC Rip | FLAC with CUE and log | 219 mb
MP3 CBR 320kbps | RAR | 83 mb
Genre: synth pop, new wave

Love And Dancing is a 1982 instrumental album by The Human League, credited to The League Unlimited Orchestra. This was released on CD in 1984 by Virgin Records.

The League Unlimited Orchestra - Love And Dancing (1982) {1984 Virgin}

1. Hard Times (5:40)
2. Love Action (I Believe In Love) (5:12)
3. Don't You Want Me (7:18)
4. Things That Dreams Are Made Of (5:10)
5. Do Or Die (4:36)
6. Seconds (2:25)
7. Open Your Heart (2:35)
8. The Sound Of The Crowd (2:55)

EAC extraction logfile from 09. April 2009, 07:42 for CD
The League Unlimited Orchestra / Love And Dancing

Used drive : LITE-ON DVDRW SOHW-1633S Adapter: 0 ID: 0

Used output format : Internal WAV Routines
44.100 Hz; 16 Bit; Stereo

Other options :
Fill up missing offset samples with silence : Yes
Delete leading and trailing silent blocks : No
Native Win32 interface for Win NT & 2000


Track 1
Filename C:\cuntfist\FLAC\The League Unlimited Orchestra - Love And Dancing (1982) [FLAC] {1984 Virgin}\01 - Hard Times.wav

Pre-gap length 0:00:02.33

Peak level 84.4 %
Track quality 100.0 %
Test CRC 51393F36
Copy CRC 51393F36
Accurately ripped (confidence 1) [CE46548F]
Copy OK

Track 2
Filename C:\cuntfist\FLAC\The League Unlimited Orchestra - Love And Dancing (1982) [FLAC] {1984 Virgin}\02 - Love Action (I Believe In Love).wav

Peak level 99.5 %
Track quality 100.0 %
Test CRC B3438BA0
Copy CRC B3438BA0
Accurately ripped (confidence 1) [CC8C15E8]
Copy OK

Track 3
Filename C:\cuntfist\FLAC\The League Unlimited Orchestra - Love And Dancing (1982) [FLAC] {1984 Virgin}\03 - Don't You Want Me.wav

Peak level 92.4 %
Track quality 100.0 %
Test CRC FC7E0AA0
Copy CRC FC7E0AA0
Accurately ripped (confidence 1) [09AB2A3A]
Copy OK

Track 4
Filename C:\cuntfist\FLAC\The League Unlimited Orchestra - Love And Dancing (1982) [FLAC] {1984 Virgin}\04 - Things That Dreams Are Made Of.wav

Peak level 83.1 %
Track quality 100.0 %
Test CRC 5BAF0949
Copy CRC 5BAF0949
Accurately ripped (confidence 1) [9C49CC53]
Copy OK

Track 5
Filename C:\cuntfist\FLAC\The League Unlimited Orchestra - Love And Dancing (1982) [FLAC] {1984 Virgin}\05 - Do Or Die.wav

Peak level 77.1 %
Track quality 99.9 %
Test CRC A8FB1824
Copy CRC A8FB1824
Accurately ripped (confidence 1) [82E7B4F0]
Copy OK

Track 6
Filename C:\cuntfist\FLAC\The League Unlimited Orchestra - Love And Dancing (1982) [FLAC] {1984 Virgin}\06 - Seconds.wav

Peak level 97.7 %
Track quality 100.0 %
Test CRC 1B470E54
Copy CRC 1B470E54
Accurately ripped (confidence 1) [F0658C71]
Copy OK

Track 7
Filename C:\cuntfist\FLAC\The League Unlimited Orchestra - Love And Dancing (1982) [FLAC] {1984 Virgin}\07 - Open Your Heart.wav

Peak level 86.6 %
Track quality 100.0 %
Test CRC 7B1FA5AF
Copy CRC 7B1FA5AF
Accurately ripped (confidence 1) [7CEC8394]
Copy OK

Track 8
Filename C:\cuntfist\FLAC\The League Unlimited Orchestra - Love And Dancing (1982) [FLAC] {1984 Virgin}\08 - The Sound Of The Crowd.wav

Peak level 97.7 %
Track quality 100.0 %
Test CRC 94BA8077
Copy CRC 94BA8077
Accurately ripped (confidence 1) [D96BB623]
Copy OK

No errors occured


End of status report


The League Unlimited Orchestra - Love And Dancing (1982) {1984 Virgin}


Thank you to the original uploader.