Tags
Language
Tags

The Mantovani Orchestra - A Lovely Way To Spend An Evening (1993) {Bainbridge} **[RE-UP]**

Posted By: TestTickles
The Mantovani Orchestra - A Lovely Way To Spend An Evening (1993) {Bainbridge} **[RE-UP]**

The Mantovani Orchestra - A Lovely Way To Spend An Evening (1993) {Bainbridge}
EAC Rip | FLAC with CUE and log | scans | 250 mb
MP3 CBR 320kbps | RAR | 116 mb
Genre: easy listening, pop

A Lovely Way To Spend An Evening is the 1993 album by The Mantovani Orchestra. This was released by Bainbridge Records.

The Mantovani Orchestra - A Lovely Way To Spend An Evening (1993) {Bainbridge} **[RE-UP]**

1. A Lovely Way To Spend An Evening (3:59)
2. Jealousy (3:20)
3. Amapola (3:31)
4. Como Prima (3:35)
5. I Left My Heart In San Francisco (2:32)
6. Limelight (3:55)
7. La Vie En Rose (3:01)
8. Over The Rainbow (3:01)
9. Smoke Gets In Your Eyes (5:35)
10. Andalucia (2:33)
11. Sunrise, Sunset (5:02)
12. Anema E Core (2:41)
13. Malaguena (4:30)
14. Stardust (4:16)
15. Tonight (2:43)

Producer: Ray Few
Conductor: Stanley Black


Exact Audio Copy V1.1 from 23. June 2015

EAC extraction logfile from 27. July 2016, 10:19

The Mantovani Orchestra / A Lovely Way To Spend An Evening

Used drive : TEAC DVD-ROM DV-28SW Adapter: 1 ID: 0

Read mode : Secure
Utilize accurate stream : Yes
Defeat audio cache : Yes
Make use of C2 pointers : No

Read offset correction : 6
Overread into Lead-In and Lead-Out : No
Fill up missing offset samples with silence : Yes
Delete leading and trailing silent blocks : No
Null samples used in CRC calculations : Yes
Used interface : Native Win32 interface for Win NT & 2000
Gap handling : Appended to previous track

Used output format : Internal WAV Routines
Sample format : 44.100 Hz; 16 Bit; Stereo


TOC of the extracted CD

Track | Start | Length | Start sector | End sector
––––––––––––––––––––––––––––-
1 | 0:00.32 | 4:02.58 | 32 | 18239
2 | 4:03.15 | 3:23.47 | 18240 | 33511
3 | 7:26.62 | 2:53.48 | 33512 | 46534
4 | 10:20.35 | 2:59.05 | 46535 | 59964
5 | 13:19.40 | 2:36.02 | 59965 | 71666
6 | 15:55.42 | 3:19.03 | 71667 | 86594
7 | 19:14.45 | 3:04.70 | 86595 | 100464
8 | 22:19.40 | 3:04.00 | 100465 | 114264
9 | 25:23.40 | 4:58.00 | 114265 | 136614
10 | 30:21.40 | 2:37.00 | 136615 | 148389
11 | 32:58.40 | 5:05.00 | 148390 | 171264
12 | 38:03.40 | 2:44.05 | 171265 | 183569
13 | 40:47.45 | 3:52.72 | 183570 | 201041
14 | 44:40.42 | 4:19.65 | 201042 | 220531
15 | 49:00.32 | 2:43.60 | 220532 | 232816


Track 1

Filename C:\My Documents\My FLAC\The Mantovani Orchestra - A Lovely Way To Spend An Evening (1993) [FLAC] {Bainbridge}\01 - A Lovely Way To Spend An Evening.wav

Pre-gap length 0:00:02.32

Peak level 99.5 %
Extraction speed 2.8 X
Track quality 100.0 %
Test CRC 2E82FB43
Copy CRC 2E82FB43
Accurately ripped (confidence 3) [4A26587C] (AR v2)
Copy OK

Track 2

Filename C:\My Documents\My FLAC\The Mantovani Orchestra - A Lovely Way To Spend An Evening (1993) [FLAC] {Bainbridge}\02 - Jealousy.wav

Pre-gap length 0:00:02.63

Peak level 99.5 %
Extraction speed 2.9 X
Track quality 100.0 %
Test CRC D3D8B3D7
Copy CRC D3D8B3D7
Accurately ripped (confidence 3) [11998AB8] (AR v2)
Copy OK

Track 3

Filename C:\My Documents\My FLAC\The Mantovani Orchestra - A Lovely Way To Spend An Evening (1993) [FLAC] {Bainbridge}\03 - Amapola.wav

Pre-gap length 0:00:02.45

Peak level 59.6 %
Extraction speed 2.5 X
Track quality 99.9 %
Test CRC 3265AD28
Copy CRC 3265AD28
Accurately ripped (confidence 3) [C51C1D1E] (AR v2)
Copy OK

Track 4

Filename C:\My Documents\My FLAC\The Mantovani Orchestra - A Lovely Way To Spend An Evening (1993) [FLAC] {Bainbridge}\04 - Como Prima.wav

Pre-gap length 0:00:01.38

Peak level 98.9 %
Extraction speed 3.1 X
Track quality 100.0 %
Test CRC 86F87352
Copy CRC 86F87352
Accurately ripped (confidence 3) [E59DF10C] (AR v2)
Copy OK

Track 5

Filename C:\My Documents\My FLAC\The Mantovani Orchestra - A Lovely Way To Spend An Evening (1993) [FLAC] {Bainbridge}\05 - I Left My Heart In San Francisco.wav

Pre-gap length 0:00:03.30

Peak level 56.4 %
Extraction speed 2.6 X
Track quality 99.9 %
Test CRC A12D3E71
Copy CRC A12D3E71
Accurately ripped (confidence 3) [B72D9FE9] (AR v2)
Copy OK

Track 6

Filename C:\My Documents\My FLAC\The Mantovani Orchestra - A Lovely Way To Spend An Evening (1993) [FLAC] {Bainbridge}\06 - Limelight.wav

Pre-gap length 0:00:03.22

Peak level 80.2 %
Extraction speed 3.5 X
Track quality 100.0 %
Test CRC 474F8C6C
Copy CRC 474F8C6C
Accurately ripped (confidence 3) [7E30E978] (AR v2)
Copy OK

Track 7

Filename C:\My Documents\My FLAC\The Mantovani Orchestra - A Lovely Way To Spend An Evening (1993) [FLAC] {Bainbridge}\07 - La Vie En Rose.wav

Pre-gap length 0:00:02.08

Peak level 63.6 %
Extraction speed 2.9 X
Track quality 99.9 %
Test CRC DFE2C136
Copy CRC DFE2C136
Accurately ripped (confidence 3) [DEF32191] (AR v2)
Copy OK

Track 8

Filename C:\My Documents\My FLAC\The Mantovani Orchestra - A Lovely Way To Spend An Evening (1993) [FLAC] {Bainbridge}\08 - Over The Rainbow.wav

Pre-gap length 0:00:02.23

Peak level 89.0 %
Extraction speed 3.9 X
Track quality 100.0 %
Test CRC 8EFFE5D2
Copy CRC 8EFFE5D2
Accurately ripped (confidence 3) [8B48A71F] (AR v2)
Copy OK

Track 9

Filename C:\My Documents\My FLAC\The Mantovani Orchestra - A Lovely Way To Spend An Evening (1993) [FLAC] {Bainbridge}\09 - Smoke Gets In Your Eyes.wav

Pre-gap length 0:00:02.08

Peak level 99.5 %
Extraction speed 3.9 X
Track quality 100.0 %
Test CRC 3189F806
Copy CRC 3189F806
Accurately ripped (confidence 3) [00692F3E] (AR v2)
Copy OK

Track 10

Filename C:\My Documents\My FLAC\The Mantovani Orchestra - A Lovely Way To Spend An Evening (1993) [FLAC] {Bainbridge}\10 - Andalucia.wav

Pre-gap length 0:00:01.33

Peak level 99.6 %
Extraction speed 3.2 X
Track quality 99.9 %
Test CRC 68CB8F87
Copy CRC 68CB8F87
Accurately ripped (confidence 3) [685C554F] (AR v2)
Copy OK

Track 11

Filename C:\My Documents\My FLAC\The Mantovani Orchestra - A Lovely Way To Spend An Evening (1993) [FLAC] {Bainbridge}\11 - Sunrise, Sunset.wav

Pre-gap length 0:00:02.53

Peak level 99.6 %
Extraction speed 4.3 X
Track quality 100.0 %
Test CRC 7247E53D
Copy CRC 7247E53D
Accurately ripped (confidence 3) [98D9E087] (AR v2)
Copy OK

Track 12

Filename C:\My Documents\My FLAC\The Mantovani Orchestra - A Lovely Way To Spend An Evening (1993) [FLAC] {Bainbridge}\12 - Anema E Core.wav

Pre-gap length 0:00:02.18

Peak level 64.0 %
Extraction speed 4.4 X
Track quality 100.0 %
Test CRC 03E28C75
Copy CRC 03E28C75
Accurately ripped (confidence 3) [21648C36] (AR v2)
Copy OK

Track 13

Filename C:\My Documents\My FLAC\The Mantovani Orchestra - A Lovely Way To Spend An Evening (1993) [FLAC] {Bainbridge}\13 - Malaguena.wav

Pre-gap length 0:00:02.35

Peak level 99.6 %
Extraction speed 4.8 X
Track quality 100.0 %
Test CRC 9DAB1E7F
Copy CRC 9DAB1E7F
Accurately ripped (confidence 3) [9E467B1D] (AR v2)
Copy OK

Track 14

Filename C:\My Documents\My FLAC\The Mantovani Orchestra - A Lovely Way To Spend An Evening (1993) [FLAC] {Bainbridge}\14 - Stardust.wav

Pre-gap length 0:00:02.40

Peak level 50.0 %
Extraction speed 5.0 X
Track quality 100.0 %
Test CRC AFE63DD9
Copy CRC AFE63DD9
Accurately ripped (confidence 3) [EE356C55] (AR v2)
Copy OK

Track 15

Filename C:\My Documents\My FLAC\The Mantovani Orchestra - A Lovely Way To Spend An Evening (1993) [FLAC] {Bainbridge}\15 - Tonight.wav

Pre-gap length 0:00:01.37

Peak level 99.5 %
Extraction speed 4.4 X
Track quality 100.0 %
Test CRC AE512907
Copy CRC AE512907
Accurately ripped (confidence 3) [03E54B27] (AR v2)
Copy OK


All tracks accurately ripped

No errors occurred

End of status report

–– CUETools DB Plugin V2.1.6

[CTDB TOCID: qH_VdWYRk8smcA6O.n2Mr7AAXuA-] found
Submit result: qH_VdWYRk8smcA6O.n2Mr7AAXuA- has been confirmed
Track | CTDB Status
1 | (1/1) Accurately ripped
2 | (1/1) Accurately ripped
3 | (1/1) Accurately ripped
4 | (1/1) Accurately ripped
5 | (1/1) Accurately ripped
6 | (1/1) Accurately ripped
7 | (1/1) Accurately ripped
8 | (1/1) Accurately ripped
9 | (1/1) Accurately ripped
10 | (1/1) Accurately ripped
11 | (1/1) Accurately ripped
12 | (1/1) Accurately ripped
13 | (1/1) Accurately ripped
14 | (1/1) Accurately ripped
15 | (1/1) Accurately ripped


==== Log checksum DD27C04395A8E6AFA09B45619EC10B71A0B20D4DC2EDF2B72BE1CFAF546979A8 ====


The Mantovani Orchestra - A Lovely Way To Spend An Evening (1993) {Bainbridge} **[RE-UP]**