Subcategories
Tags
Language
Tags

The McCoys - Hang On Sloopy: The Best Of... (1995) {Legacy/Epic Associated}

Posted By: TestTickles
The McCoys - Hang On Sloopy: The Best Of... (1995) {Legacy/Epic Associated}

The McCoys - Hang On Sloopy: The Best Of… (1995) {Legacy/Epic Associated}
EAC Rip | FLAC with CUE and LOG | scans | 482 mb
MP3 CBR 320 kbps | RAR | 256 mb
Genre: pop rock

Hang On Sloopy: The Best Of The McCoys is an official 1995 compilation by The McCoys of Union City, Indiana. This was released by Legacy via Epic Associated.

01. Meet The McCoys
02. Hang On Sloopy
03. I Can't Explain It
04. Fever
05. Sorrow
06. Up And Down
07. If You Tell A Lie
08. Come On Let's Go
09. Little People
10. Smokey Joe's Cafe
11. Mr. Summer
12. Everyday I Have To Cry
13. (You Make Me Feel) So Good
14. Runaway
15. Gator Tails And Monkey Ribs
16. Ko-Ko
17. Bald Headed Lena
18. Say Those Magic Words
19. Don't Worry Mother (Your Son's Heart Is Pure)
20. I Got To Go Back (And Watch That Little Girl Dance)
21. The Dynamite
22. Beat The Clock

Exact Audio Copy V1.1 from 23. June 2015

EAC extraction logfile from 12. February 2020, 9:27

The McCoys / Hang On Sloopy, The Best Of…

Used drive : HL-DT-STDVDRAM GH24NS90 Adapter: 1 ID: 0

Read mode : Secure
Utilize accurate stream : Yes
Defeat audio cache : No
Make use of C2 pointers : Yes

Read offset correction : 6
Overread into Lead-In and Lead-Out : No
Fill up missing offset samples with silence : Yes
Delete leading and trailing silent blocks : No
Null samples used in CRC calculations : Yes
Used interface : Native Win32 interface for Win NT & 2000
Gap handling : Appended to previous track

Used output format : User Defined Encoder
Selected bitrate : 1024 kBit/s
Quality : High
Add ID3 tag : No
Command line compressor : C:\Program Files (x86)\FLAC\flac.exe


TOC of the extracted CD

Track | Start | Length | Start sector | End sector
––––––––––––––––––––––––––––-
1 | 0:00.00 | 1:40.10 | 0 | 7509
2 | 1:40.10 | 3:53.60 | 7510 | 25044
3 | 5:33.70 | 2:28.20 | 25045 | 36164
4 | 8:02.15 | 2:52.12 | 36165 | 49076
5 | 10:54.27 | 2:05.10 | 49077 | 58461
6 | 12:59.37 | 3:02.23 | 58462 | 72134
7 | 16:01.60 | 2:01.45 | 72135 | 81254
8 | 18:03.30 | 2:41.55 | 81255 | 93384
9 | 20:45.10 | 2:19.22 | 93385 | 103831
10 | 23:04.32 | 2:20.63 | 103832 | 114394
11 | 25:25.20 | 2:50.17 | 114395 | 127161
12 | 28:15.37 | 2:28.48 | 127162 | 138309
13 | 30:44.10 | 2:43.42 | 138310 | 150576
14 | 33:27.52 | 3:00.10 | 150577 | 164086
15 | 36:27.62 | 3:01.58 | 164087 | 177719
16 | 39:29.45 | 2:16.27 | 177720 | 187946
17 | 41:45.72 | 2:37.03 | 187947 | 199724
18 | 44:23.00 | 2:55.50 | 199725 | 212899
19 | 47:18.50 | 3:28.32 | 212900 | 228531
20 | 50:47.07 | 3:03.68 | 228532 | 242324
21 | 53:51.00 | 2:14.35 | 242325 | 252409
22 | 56:05.35 | 3:59.70 | 252410 | 270404


Track 1

Filename C:\cuntfist\FLAC\The McCoys - Hang On Sloopy, The Best Of.. - (1995) [FLAC] {Legacy, Epic Associated}\01 - Meet The McCoys.wav

Pre-gap length 0:00:02.00

Peak level 98.2 %
Extraction speed 3.6 X
Track quality 100.0 %
Test CRC A7715BDD
Copy CRC A7715BDD
Accurately ripped (confidence 1) [5886D7DC] (AR v2)
Copy OK

Track 2

Filename C:\cuntfist\FLAC\The McCoys - Hang On Sloopy, The Best Of.. - (1995) [FLAC] {Legacy, Epic Associated}\02 - Hang On Sloopy.wav

Pre-gap length 0:00:02.00

Peak level 100.0 %
Extraction speed 3.8 X
Track quality 100.0 %
Test CRC 814F460F
Copy CRC 814F460F
Accurately ripped (confidence 1) [5353B0FF] (AR v2)
Copy OK

Track 3

Filename C:\cuntfist\FLAC\The McCoys - Hang On Sloopy, The Best Of.. - (1995) [FLAC] {Legacy, Epic Associated}\03 - I Can't Explain It.wav

Pre-gap length 0:00:02.00

Peak level 85.1 %
Extraction speed 2.3 X
Track quality 99.5 %
Test CRC 933CA17F
Copy CRC 83C842B1
Cannot be verified as accurate (confidence 1) [9F4F9A25], AccurateRip returned [32FF9F84] (AR v2)
Copy OK

Track 4

Filename C:\cuntfist\FLAC\The McCoys - Hang On Sloopy, The Best Of.. - (1995) [FLAC] {Legacy, Epic Associated}\04 - Fever.wav

Pre-gap length 0:00:02.15

Peak level 96.9 %
Extraction speed 4.8 X
Track quality 100.0 %
Test CRC 73106F86
Copy CRC 73106F86
Accurately ripped (confidence 1) [DDB92517] (AR v2)
Copy OK

Track 5

Filename C:\cuntfist\FLAC\The McCoys - Hang On Sloopy, The Best Of.. - (1995) [FLAC] {Legacy, Epic Associated}\05 - Sorrow.wav

Pre-gap length 0:00:02.00

Peak level 70.0 %
Extraction speed 4.6 X
Track quality 100.0 %
Test CRC D57D4C33
Copy CRC D57D4C33
Accurately ripped (confidence 1) [D41AA0E3] (AR v2)
Copy OK

Track 6

Filename C:\cuntfist\FLAC\The McCoys - Hang On Sloopy, The Best Of.. - (1995) [FLAC] {Legacy, Epic Associated}\06 - Up And Down.wav

Pre-gap length 0:00:02.00

Peak level 98.0 %
Extraction speed 5.2 X
Track quality 100.0 %
Test CRC 167BD18E
Copy CRC 167BD18E
Cannot be verified as accurate (confidence 1) [AAB23659], AccurateRip returned [6BF89EA5] (AR v2)
Copy OK

Track 7

Filename C:\cuntfist\FLAC\The McCoys - Hang On Sloopy, The Best Of.. - (1995) [FLAC] {Legacy, Epic Associated}\07 - If You Tell A Lie.wav

Pre-gap length 0:00:01.73

Peak level 99.0 %
Extraction speed 5.0 X
Track quality 100.0 %
Test CRC 488AE227
Copy CRC 488AE227
Accurately ripped (confidence 1) [2D986911] (AR v2)
Copy OK

Track 8

Filename C:\cuntfist\FLAC\The McCoys - Hang On Sloopy, The Best Of.. - (1995) [FLAC] {Legacy, Epic Associated}\08 - Come On Let's Go.wav

Pre-gap length 0:00:02.25

Peak level 85.3 %
Extraction speed 5.4 X
Track quality 100.0 %
Test CRC 0B233516
Copy CRC 0B233516
Accurately ripped (confidence 1) [315B13E0] (AR v2)
Copy OK

Track 9

Filename C:\cuntfist\FLAC\The McCoys - Hang On Sloopy, The Best Of.. - (1995) [FLAC] {Legacy, Epic Associated}\09 - Little People.wav

Pre-gap length 0:00:02.10

Peak level 97.1 %
Extraction speed 5.8 X
Track quality 100.0 %
Test CRC DC7F127E
Copy CRC DC7F127E
Accurately ripped (confidence 1) [2E2FB157] (AR v2)
Copy OK

Track 10

Filename C:\cuntfist\FLAC\The McCoys - Hang On Sloopy, The Best Of.. - (1995) [FLAC] {Legacy, Epic Associated}\10 - Smokey Joe's Cafe.wav

Pre-gap length 0:00:02.00

Peak level 93.7 %
Extraction speed 5.6 X
Track quality 99.8 %
Test CRC C4E65D58
Copy CRC C4E65D58
Accurately ripped (confidence 1) [5E25928C] (AR v2)
Copy OK

Track 11

Filename C:\cuntfist\FLAC\The McCoys - Hang On Sloopy, The Best Of.. - (1995) [FLAC] {Legacy, Epic Associated}\11 - Mr - Summer.wav

Pre-gap length 0:00:02.00

Peak level 100.0 %
Extraction speed 6.2 X
Track quality 100.0 %
Test CRC 559445E5
Copy CRC 559445E5
Accurately ripped (confidence 1) [511A1AFF] (AR v2)
Copy OK

Track 12

Filename C:\cuntfist\FLAC\The McCoys - Hang On Sloopy, The Best Of.. - (1995) [FLAC] {Legacy, Epic Associated}\12 - Everyday I Have To Cry.wav

Pre-gap length 0:00:02.00

Peak level 97.6 %
Extraction speed 6.0 X
Track quality 100.0 %
Test CRC 5E831F4F
Copy CRC 5E831F4F
Accurately ripped (confidence 1) [2FBD8685] (AR v2)
Copy OK

Track 13

Filename C:\cuntfist\FLAC\The McCoys - Hang On Sloopy, The Best Of.. - (1995) [FLAC] {Legacy, Epic Associated}\13 - (You Make Me Feel) So Good.wav

Pre-gap length 0:00:02.00

Peak level 100.0 %
Extraction speed 6.6 X
Track quality 100.0 %
Test CRC F1471EF6
Copy CRC F1471EF6
Accurately ripped (confidence 1) [697D9FEF] (AR v2)
Copy OK

Track 14

Filename C:\cuntfist\FLAC\The McCoys - Hang On Sloopy, The Best Of.. - (1995) [FLAC] {Legacy, Epic Associated}\14 - Runaway.wav

Pre-gap length 0:00:02.00

Peak level 94.4 %
Extraction speed 6.8 X
Track quality 100.0 %
Test CRC 8B744FDC
Copy CRC 8B744FDC
Accurately ripped (confidence 1) [0923A765] (AR v2)
Copy OK

Track 15

Filename C:\cuntfist\FLAC\The McCoys - Hang On Sloopy, The Best Of.. - (1995) [FLAC] {Legacy, Epic Associated}\15 - Gator Tails And Monkey Ribs.wav

Pre-gap length 0:00:02.00

Peak level 99.3 %
Extraction speed 7.0 X
Track quality 100.0 %
Test CRC 2799CE3B
Copy CRC 2799CE3B
Accurately ripped (confidence 1) [B5FD5639] (AR v2)
Copy OK

Track 16

Filename C:\cuntfist\FLAC\The McCoys - Hang On Sloopy, The Best Of.. - (1995) [FLAC] {Legacy, Epic Associated}\16 - Ko-Ko.wav

Pre-gap length 0:00:02.00

Peak level 77.0 %
Extraction speed 6.6 X
Track quality 99.8 %
Test CRC A4EEE3AF
Copy CRC A4EEE3AF
Accurately ripped (confidence 1) [AC07F935] (AR v2)
Copy OK

Track 17

Filename C:\cuntfist\FLAC\The McCoys - Hang On Sloopy, The Best Of.. - (1995) [FLAC] {Legacy, Epic Associated}\17 - Bald Headed Lena.wav

Pre-gap length 0:00:02.00

Peak level 90.3 %
Extraction speed 6.8 X
Track quality 100.0 %
Test CRC F44734FA
Copy CRC F44734FA
Accurately ripped (confidence 1) [3F7574CE] (AR v2)
Copy OK

Track 18

Filename C:\cuntfist\FLAC\The McCoys - Hang On Sloopy, The Best Of.. - (1995) [FLAC] {Legacy, Epic Associated}\18 - Say Those Magic Words.wav

Pre-gap length 0:00:02.00

Peak level 75.1 %
Extraction speed 7.4 X
Track quality 100.0 %
Test CRC 8FF6B75C
Copy CRC 8FF6B75C
Accurately ripped (confidence 1) [F2642271] (AR v2)
Copy OK

Track 19

Filename C:\cuntfist\FLAC\The McCoys - Hang On Sloopy, The Best Of.. - (1995) [FLAC] {Legacy, Epic Associated}\19 - Don't Worry Mother (Your Son's Heart Is Pure).wav

Pre-gap length 0:00:02.00

Peak level 97.4 %
Extraction speed 7.3 X
Track quality 99.8 %
Test CRC 2302322F
Copy CRC 2302322F
Accurately ripped (confidence 1) [F4C32041] (AR v2)
Copy OK

Track 20

Filename C:\cuntfist\FLAC\The McCoys - Hang On Sloopy, The Best Of.. - (1995) [FLAC] {Legacy, Epic Associated}\20 - I Got To Go Back (And Watch That Little Girl Dance).wav

Pre-gap length 0:00:02.00

Peak level 99.3 %
Extraction speed 7.8 X
Track quality 100.0 %
Test CRC 0D504D6D
Copy CRC 0D504D6D
Accurately ripped (confidence 1) [2AFD256E] (AR v2)
Copy OK

Track 21

Filename C:\cuntfist\FLAC\The McCoys - Hang On Sloopy, The Best Of.. - (1995) [FLAC] {Legacy, Epic Associated}\21 - The Dynamite.wav

Pre-gap length 0:00:02.00

Peak level 99.3 %
Extraction speed 7.3 X
Track quality 99.8 %
Test CRC 34E33A69
Copy CRC 34E33A69
Accurately ripped (confidence 1) [985BE3BC] (AR v2)
Copy OK

Track 22

Filename C:\cuntfist\FLAC\The McCoys - Hang On Sloopy, The Best Of.. - (1995) [FLAC] {Legacy, Epic Associated}\22 - Beat The Clock.wav

Pre-gap length 0:00:02.00

Peak level 98.9 %
Extraction speed 7.8 X
Track quality 100.0 %
Test CRC CABA787F
Copy CRC CABA787F
Accurately ripped (confidence 1) [DCB1FB40] (AR v2)
Copy OK


20 track(s) accurately ripped
2 track(s) could not be verified as accurate

Some tracks could not be verified as accurate

No errors occurred

End of status report

–– CUETools DB Plugin V2.1.6

[CTDB TOCID: Xr6gmsgdmoNGpP5AMK2ZfAJ0cE8-] found
Submit result: insufficient quality
Track | CTDB Status
1 | (5/5) Accurately ripped
2 | (5/5) Accurately ripped
3 | (5/5) Differs in 28338 samples @02:27:70-02:28:19
4 | (5/5) Accurately ripped
5 | (5/5) Accurately ripped
6 | (5/5) Differs in 4727 samples @03:02:18-03:02:22
7 | (5/5) Accurately ripped
8 | (5/5) Accurately ripped
9 | (5/5) Accurately ripped
10 | (5/5) Accurately ripped
11 | (5/5) Accurately ripped
12 | (5/5) Accurately ripped
13 | (5/5) Accurately ripped
14 | (5/5) Accurately ripped
15 | (5/5) Accurately ripped
16 | (5/5) Accurately ripped
17 | (5/5) Accurately ripped
18 | (5/5) Accurately ripped
19 | (5/5) Accurately ripped
20 | (5/5) Accurately ripped
21 | (5/5) Accurately ripped
22 | (5/5) Accurately ripped

If you are sure that your rip contains errors, you can use CUETools to repair it.


The McCoys - Hang On Sloopy: The Best Of... (1995) {Legacy/Epic Associated}


Thank you to the original uploader.