Tags
Language
Tags

The Threshold Houseboys Choir - ...Amulet Edition (4CD) (2008)

Posted By: TestTickles
The Threshold Houseboys Choir - ...Amulet Edition (4CD) (2008)

The Threshold Houseboys Choir - …Amulet Edition (4CD) (2008)
EAC Rip | FLAC with log | scans | 341 mb
MP3 CBR 320 kbps | RAR | 173 mb
Genre: electronic pop, experimental pop

The Threshold Houseboys Choir Amulet Edition is a limited edition 4CD album by Coil member Peter Christopherson, who works as The Threshold Houseboys Choir. He released this on his own, made for the fans.

The Threshold Houseboys Choir - ...Amulet Edition (4CD) (2008)

Disc A
1. Be Happy (8:26)
2. There And Back (4:40)
3. The Day Moon Died (8:24)

Disc B
1. Ikoreek (12:16)
2. As X Is To Geff (5:30)

Disc C
1. The Hangman's Ball (10:48)
2. Khun Cap Taxi (9:49)

Disc D
1. Distonto (12:02)
2. Lowly Low (7:24)

Exact Audio Copy V0.99 prebeta 4 from 23. January 2008

EAC extraction logfile from 15. March 2010, 8:26

The Threshold HouseBoys Choir / The Threshold Houseboys Choir Amulet Edition / Disc A /

Used drive : ASUS CB-5216A Adapter: 1 ID: 1

Read mode : Secure
Utilize accurate stream : Yes
Defeat audio cache : Yes
Make use of C2 pointers : No

Read offset correction : 6
Overread into Lead-In and Lead-Out : No
Fill up missing offset samples with silence : Yes
Delete leading and trailing silent blocks : No
Null samples used in CRC calculations : Yes
Used interface : Native Win32 interface for Win NT & 2000

Used output format : User Defined Encoder
Selected bitrate : 1024 kBit/s
Quality : High
Add ID3 tag : No
Command line compressor : C:\Program Files\Exact Audio Copy\FLAC\FLAC.EXE
Additional command line options : -6 -V -T "ARTIST=%a" -T "TITLE=%t" -T "ALBUM=%g" -T "DATE=%y" -T "TRACKNUMBER=%n" -T "GENRE=%m" -T "COMMENT=%e" %s -o %d

TOC of the extracted CD

Track | Start | Length | Start sector | End sector
––––––––––––––––––––––––––––-
1 | 0:00.00 | 8:26.00 | 0 | 37949
2 | 8:26.00 | 4:40.30 | 37950 | 58979
3 | 13:06.30 | 8:24.00 | 58980 | 96779

Range status and errors

Selected range

Filename C:\cuntfist\FLAC\The Threshold Houseboys Choir - …Amulet Edition (4CD) (2008) [FLAC]\Disc A\The Threshold HouseBoys Choir - …Amulet Edition (Disc A).wav

Peak level 100.0 %
Range quality 99.9 %
Test CRC 3BA3A1DA
Copy CRC 3BA3A1DA
Copy OK

No errors occurred

AccurateRip summary

Track 1 not present in database
Track 2 not present in database
Track 3 not present in database

None of the tracks are present in the AccurateRip database

End of status report






Exact Audio Copy V0.99 prebeta 4 from 23. January 2008

EAC extraction logfile from 15. March 2010, 8:59

The Threshold HouseBoys Choir / The Threshold Houseboys Choir Amulet Edition / Disc B /

Used drive : ASUS CB-5216A Adapter: 1 ID: 1

Read mode : Secure
Utilize accurate stream : Yes
Defeat audio cache : Yes
Make use of C2 pointers : No

Read offset correction : 6
Overread into Lead-In and Lead-Out : No
Fill up missing offset samples with silence : Yes
Delete leading and trailing silent blocks : No
Null samples used in CRC calculations : Yes
Used interface : Native Win32 interface for Win NT & 2000

Used output format : User Defined Encoder
Selected bitrate : 1024 kBit/s
Quality : High
Add ID3 tag : No
Command line compressor : C:\Program Files\Exact Audio Copy\FLAC\FLAC.EXE
Additional command line options : -6 -V -T "ARTIST=%a" -T "TITLE=%t" -T "ALBUM=%g" -T "DATE=%y" -T "TRACKNUMBER=%n" -T "GENRE=%m" -T "COMMENT=%e" %s -o %d

TOC of the extracted CD

Track | Start | Length | Start sector | End sector
––––––––––––––––––––––––––––-
1 | 0:00.00 | 12:15.51 | 0 | 55175
2 | 12:15.51 | 5:30.00 | 55176 | 79925

Range status and errors

Selected range

Filename C:\cuntfist\FLAC\The Threshold Houseboys Choir - …Amulet Edition (4CD) (2008) [FLAC]\Disc B\The Threshold HouseBoys Choir - …Amulet Edition (Disc B).wav

Peak level 92.8 %
Range quality 100.0 %
Test CRC 39A9620C
Copy CRC 39A9620C
Copy OK

No errors occurred

AccurateRip summary

Track 1 not present in database
Track 2 not present in database

None of the tracks are present in the AccurateRip database

End of status report






Exact Audio Copy V0.99 prebeta 4 from 23. January 2008

EAC extraction logfile from 15. March 2010, 9:31

The Threshold HouseBoys Choir / The Threshold Houseboys Choir Amulet Edition / Disc C /

Used drive : ASUS CB-5216A Adapter: 1 ID: 1

Read mode : Secure
Utilize accurate stream : Yes
Defeat audio cache : Yes
Make use of C2 pointers : No

Read offset correction : 6
Overread into Lead-In and Lead-Out : No
Fill up missing offset samples with silence : Yes
Delete leading and trailing silent blocks : No
Null samples used in CRC calculations : Yes
Used interface : Native Win32 interface for Win NT & 2000

Used output format : User Defined Encoder
Selected bitrate : 1024 kBit/s
Quality : High
Add ID3 tag : No
Command line compressor : C:\Program Files\Exact Audio Copy\FLAC\FLAC.EXE
Additional command line options : -6 -V -T "ARTIST=%a" -T "TITLE=%t" -T "ALBUM=%g" -T "DATE=%y" -T "TRACKNUMBER=%n" -T "GENRE=%m" -T "COMMENT=%e" %s -o %d

TOC of the extracted CD

Track | Start | Length | Start sector | End sector
––––––––––––––––––––––––––––-
1 | 0:00.00 | 10:48.30 | 0 | 48629
2 | 10:48.30 | 9:48.60 | 48630 | 92789

Range status and errors

Selected range

Filename C:\cuntfist\FLAC\The Threshold Houseboys Choir - …Amulet Edition (4CD) (2008) [FLAC]\Disc C\The Threshold HouseBoys Choir - …Amulet Edition (Disc C).wav

Peak level 100.0 %
Range quality 100.0 %
Test CRC F229B52F
Copy CRC F229B52F
Copy OK

No errors occurred

AccurateRip summary

Track 1 not present in database
Track 2 not present in database

None of the tracks are present in the AccurateRip database

End of status report






Exact Audio Copy V0.99 prebeta 4 from 23. January 2008

EAC extraction logfile from 15. March 2010, 10:15

The Threshold HouseBoys Choir / The Threshold Houseboys Choir Amulet Edition / Disc D /

Used drive : ASUS CB-5216A Adapter: 1 ID: 1

Read mode : Secure
Utilize accurate stream : Yes
Defeat audio cache : Yes
Make use of C2 pointers : No

Read offset correction : 6
Overread into Lead-In and Lead-Out : No
Fill up missing offset samples with silence : Yes
Delete leading and trailing silent blocks : No
Null samples used in CRC calculations : Yes
Used interface : Native Win32 interface for Win NT & 2000

Used output format : User Defined Encoder
Selected bitrate : 1024 kBit/s
Quality : High
Add ID3 tag : No
Command line compressor : C:\Program Files\Exact Audio Copy\FLAC\FLAC.EXE
Additional command line options : -6 -V -T "ARTIST=%a" -T "TITLE=%t" -T "ALBUM=%g" -T "DATE=%y" -T "TRACKNUMBER=%n" -T "GENRE=%m" -T "COMMENT=%e" %s -o %d

TOC of the extracted CD

Track | Start | Length | Start sector | End sector
––––––––––––––––––––––––––––-
1 | 0:00.00 | 12:02.00 | 0 | 54149
2 | 12:02.00 | 7:24.00 | 54150 | 87449

Range status and errors

Selected range

Filename C:\cuntfist\FLAC\The Threshold Houseboys Choir - …Amulet Edition (4CD) (2008) [FLAC]\Disc D\The Threshold HouseBoys Choir - …Amulet Edition (Disc D).wav

Peak level 100.0 %
Range quality 99.9 %
Test CRC 05A3EFDE
Copy CRC 05A3EFDE
Copy OK

No errors occurred

AccurateRip summary

Track 1 not present in database
Track 2 not present in database

None of the tracks are present in the AccurateRip database

End of status report


The Threshold Houseboys Choir - ...Amulet Edition (4CD) (2008)


Thank you to the original uploader.