Tags
Language
Tags

Thierry David - Ocean Rhapsody (2008) {Vox Terrae}

Posted By: TestTickles
Thierry David - Ocean Rhapsody (2008) {Vox Terrae}

Thierry David - Ocean Rhapsody (2008) {Vox Terrae}
EAC Rip | FLAC with CUE and LOG | scans | 296 mb
MP3 CBR 320 kbps | RAR | 132 mb
Genre: new age

Ocean Rhapsody is the 2008 CD by French artist, composer, producer and genius Thierry David. This is a Vox Terrae presentation.

Thierry David - Ocean Rhapsody (2008) {Vox Terrae}

01. Waves Of Bliss (9:34)
02. Aquamarine (7:01)
03. Ocean Rhapsody (6:52)
04. Lost Atlantis (5:08)
05. Never Let Her Go (6:57)
06. Dolphin Serenade (4:42)
07. Rumors (2:59)
08. Siren Island (4:37)
09. The Ghost Vessel (4:37)
10. Blue Lullaby (5:38)

Exact Audio Copy V0.99 prebeta 5 from 4. May 2009

EAC extraction logfile from 13. May 2010, 10:19

Thierry David / Ocean Rhapsody

Used drive : _NEC DVD_RW ND-4571A Adapter: 0 ID: 0

Read mode : Secure
Utilize accurate stream : Yes
Defeat audio cache : Yes
Make use of C2 pointers : No

Read offset correction : 48
Overread into Lead-In and Lead-Out : No
Fill up missing offset samples with silence : Yes
Delete leading and trailing silent blocks : No
Null samples used in CRC calculations : Yes
Used interface : Native Win32 interface for Win NT & 2000
Gap handling : Appended to previous track

Used output format : User Defined Encoder
Selected bitrate : 768 kBit/s
Quality : High
Add ID3 tag : No
Command line compressor : C:\Program Files\Exact Audio Copy\FLAC\FLAC.EXE
Additional command line options : -6 -V -T "ARTIST=%a" -T "TITLE=%t" -T "ALBUM=%g" -T "DATE=%y" -T "TRACKNUMBER=%n" -T "GENRE=%m" -T "COMMENT=%e" %s -o %d

TOC of the extracted CD

Track | Start | Length | Start sector | End sector
––––––––––––––––––––––––––––-
1 | 0:00.00 | 9:34.07 | 0 | 43056
2 | 9:34.07 | 7:01.67 | 43057 | 74698
3 | 16:35.74 | 6:52.44 | 74699 | 105642
4 | 23:28.43 | 5:08.25 | 105643 | 128767
5 | 28:36.68 | 6:57.73 | 128768 | 160115
6 | 35:34.66 | 4:42.34 | 160116 | 181299
7 | 40:17.25 | 2:59.22 | 181300 | 194746
8 | 43:16.47 | 4:37.53 | 194747 | 215574
9 | 47:54.25 | 4:37.10 | 215575 | 236359
10 | 52:31.35 | 5:38.72 | 236360 | 261781

Track 1

Filename C:\cuntfist\FLAC\Thierry David - Ocean Rhapsody (2008) [FLAC] {Vox Terrae}\01 - Waves Of Bliss.wav

Pre-gap length 0:00:02.00

Peak level 98.1 %
Track quality 99.9 %
Test CRC 21944609
Copy CRC 21944609
Copy OK

Track 2

Filename C:\cuntfist\FLAC\Thierry David - Ocean Rhapsody (2008) [FLAC] {Vox Terrae}\02 - Aquamarine.wav

Peak level 97.1 %
Track quality 100.0 %
Test CRC 4741BD48
Copy CRC 4741BD48
Copy OK

Track 3

Filename C:\cuntfist\FLAC\Thierry David - Ocean Rhapsody (2008) [FLAC] {Vox Terrae}\03 - Ocean Rhapsody.wav

Peak level 97.0 %
Track quality 100.0 %
Test CRC 0BB37B5A
Copy CRC 0BB37B5A
Copy OK

Track 4

Filename C:\cuntfist\FLAC\Thierry David - Ocean Rhapsody (2008) [FLAC] {Vox Terrae}\04 - Lost Atlantis.wav

Peak level 83.2 %
Track quality 100.0 %
Test CRC 16F2C5BC
Copy CRC 16F2C5BC
Copy OK

Track 5

Filename C:\cuntfist\FLAC\Thierry David - Ocean Rhapsody (2008) [FLAC] {Vox Terrae}\05 - Never Let Her Go.wav

Peak level 97.2 %
Track quality 99.9 %
Test CRC 734E8737
Copy CRC 734E8737
Copy OK

Track 6

Filename C:\cuntfist\FLAC\Thierry David - Ocean Rhapsody (2008) [FLAC] {Vox Terrae}\06 - Dolphin Serenade.wav

Peak level 85.9 %
Track quality 100.0 %
Test CRC 0C3D3B12
Copy CRC 0C3D3B12
Copy OK

Track 7

Filename C:\cuntfist\FLAC\Thierry David - Ocean Rhapsody (2008) [FLAC] {Vox Terrae}\07 - Rumors.wav

Peak level 74.9 %
Track quality 99.9 %
Test CRC 2B6D06BE
Copy CRC 2B6D06BE
Copy OK

Track 8

Filename C:\cuntfist\FLAC\Thierry David - Ocean Rhapsody (2008) [FLAC] {Vox Terrae}\08 - Siren Island.wav

Peak level 86.5 %
Track quality 100.0 %
Test CRC 33E88726
Copy CRC 33E88726
Copy OK

Track 9

Filename C:\cuntfist\FLAC\Thierry David - Ocean Rhapsody (2008) [FLAC] {Vox Terrae}\09 - The Ghost Vessel.wav

Peak level 71.5 %
Track quality 100.0 %
Test CRC 5A96413B
Copy CRC 5A96413B
Copy OK

Track 10

Filename C:\cuntfist\FLAC\Thierry David - Ocean Rhapsody (2008) [FLAC] {Vox Terrae}\10 - Blue Lullaby.wav

Peak level 90.4 %
Track quality 100.0 %
Test CRC 22545EF9
Copy CRC 22545EF9
Copy OK

No errors occurred

End of status report


Thierry David - Ocean Rhapsody (2008) {Vox Terrae}


Thank you to the original uploader.