Tags
Language
Tags

TNT - Three Nights In Tokyo (1992) [Japan 1st Press]

Posted By: Andi_Deris
TNT - Three Nights In Tokyo (1992) [Japan 1st Press]

TNT - Three Nights In Tokyo (1992) [Japan 1st Press]
EAC Rip | FLAC: Image+Cue+Log | 429 Mb | MP3 CBR 320 kbps | 161 Mb | Scans | 29 Mb | Time: 01:04:27
MMG Inc. | AMCY-490
Hard Rock, Hair Metal

Three Nights In Tokyo was recorded over a three night stand this Norwegian four piece metal band played in August 1992. Most of these tracks are good, like "Purple Mountain's Majesty", the awesome "As Far As The Eye Can See", "10,000 Lovers In One", Le Tekro's guitar solo, "Seven Seas", the astounding rocker "Everyone's A Star".

TNT - Three Nights In Tokyo (1992) [Japan 1st Press]




Track Listing

01. Purple Mountain's Majesty (06:42)
02. Hard To Say Goodbye (05:24)
03. Downhill Racer (05:09)
04. As Far As The Eye Can See (04:49)
05. 10,000 Lovers (In One) (02:56)
06. Guitar Solo (07:01)
07. Indian Summer (05:38)
08. Lionheart (08:48)
09. Seven Seas (08:42)
10. Mother Warned Me (03:10)
11. Everyone's A Star (06:10)

Produced by TNT

The Band

Tony Harnell - vocals
Ronni Le Tekrø - guitars
Morty Black - bass
John Macaluso - drums

*****
• Dag Stokke - keyboards

Exact Audio Copy V0.99 prebeta 4 from 23. January 2008

EAC Auslese-Logdatei vom 29. September 2010, 13:29

TNT / Three Nights In Tokyo

Benutztes Laufwerk : SONY DVD RW AW-G170A Adapter: 1 ID: 0

Lesemodus : Sicher
Benutze Accurate Stream : Ja
Audio Puffer abgeschaltet : Ja
Benutze C2 Fehlerinformationen : Nein

Leseoffset Korrektur : 48
Ьberlesen in das Lead-In und Lead-Out : Nein
Fьlle fehlende Offsetsample mit Stille auf : Ja
Lцsche fьhrende und nachfolgende stille Blцcke : Nein
Null Samples gehen in CRC Berechnungen ein : Ja
Benutzte Schnittstelle : Natьrliche Win32 Schnittstelle fьr Win NT/2000/XP

Benutztes Ausgabeformat : Interne WAV Routinen
Sampleformat : 44.100 Hz; 16 Bit; Stereo


TOC der ausgelesenen CD

Track | Start | Lдnge | Startsektor | Endsektor
–––––––––––––––––––––––––––-
1 | 0:00.00 | 6:42.05 | 0 | 30154
2 | 6:42.05 | 5:23.65 | 30155 | 54444
3 | 12:05.70 | 5:08.65 | 54445 | 77609
4 | 17:14.60 | 4:48.55 | 77610 | 99264
5 | 22:03.40 | 2:55.40 | 99265 | 112429
6 | 24:59.05 | 7:00.72 | 112430 | 144001
7 | 32:00.02 | 5:37.50 | 144002 | 169326
8 | 37:37.52 | 8:47.58 | 169327 | 208909
9 | 46:25.35 | 8:41.40 | 208910 | 248024
10 | 55:07.00 | 3:09.37 | 248025 | 262236
11 | 58:16.37 | 6:09.38 | 262237 | 289949


Bereichsstatus und Fehler

Gewдhlter Bereich

Dateiname D:\M-files\Rock\TNT - Three Nights In Tokyo.wav

Spitzenpegel 100.0 %
Bereichsqualitдt 100.0 %
Kopie CRC 8C5C06BC
Kopie OK

Keine Fehler aufgetreten

Ende des Statusreports


Many thanks to the original uploader: Ready.zp