Tags
Language
Tags

VA - True Blue: The Best Of Sonic The Hedgehog (2008) {Wave Master Entertainment}

Posted By: TestTickles
VA - True Blue: The Best Of Sonic The Hedgehog (2008) {Wave Master Entertainment}

VA - True Blue: The Best Of Sonic The Hedgehog (2008) {Wave Master Entertainment}
EAC Rip | FLAC with CUE and log | scans | 529 mb
MP3 CBR 320 kbps | RAR | 165 mb
Genre: electronic rock, alternative rock, pop rock

True Blue: The Best Of Sonic The Hedgehog is a 2008 compilation in honor of the video game Sonic The Hedgehog featuring some of the best Hedgehog pop and rock in existence from Japan and worlds. This was released by Wave Master Entertainment.

VA - True Blue: The Best Of Sonic The Hedgehog (2008) {Wave Master Entertainment}

01. Crush 40 - Live & Learn (4:29)
02. Tony Harnell - It Doesn't Matter (SA2 Version) (2:42)
03. Ted Poley & Tony Harnell - Escape From The City (2:20)
04. Ali Tabatabaee & Matty Lewis from Zebrahead - His World (4:37)
05. Richard Jacques & T.J.Davis - Super Sonic Racing (4:00)
06. Masafumi Ogata & Keiko Utoku - Sonic - You Can Do Anything (Japanese Edition) (1:31)
07. Spencer Nilsen & Pastiche - Sonic Boom (U.S. Edition) (3:08)
08. Tomonori Sawada & Runblebee - Sonic Speed Riders (1:39)
09. Jun Senoue & Ted Poley - Race To Win (0:58)
10. Russell Velazquez, Joseph Garrity, Norman Grossfield - Sonic X Theme (U.S. Edition) (1:01)
11. Hideki Naganuma - Right There, Ride On (Digital Remakin' Trax) (2:37)
12. Crush 40 - Sonic Heroes (3:28)
13. Crush 40 - What I'm Made Of… (3:41)
14. Kenichi Tokoi & Steve Conte - Seven Rings in Hand (5:06)
15. Tomoya Ohtani & Zebrahead - His World (Zebrahead Version) (3:30)
16. Jun Senoue & Tony Harnell - It Doesn't Matter (SA1 Version) (4:28)
17. Jun Senoue, Kenichi Tokoi, Johnny Gioeli, Crush 40 - Open Your Heart (5:12)
18. Tomoya Ohtani & Tahirih Walker - A New Venture (Surfin' S.R.A. Remix) (Bonus Track) (2:59)
19. Jun Senoue - Angel Island Zone (SSBB Remix) (Bonus Track) (2:21)
20. Crush 40 - Seven Rings In Hand (Crush 40 Version) (Bonus Track) (4:48)
21. Crush 40 featuring Bentley Jones - Open Your Heart (Crush 40 vs. Bentley Jones Remix) (Bonus Track) (4:58)

Exact Audio Copy V0.99 prebeta 5 from 4. May 2009

EAC extraction logfile from 15. August 2011, 12:19

Various Artists / True Blue: The Best Of Sonic The Hedgehog

Used drive : PIONEER DVD-RW DVR-216D Adapter: 1 ID: 0

Read mode : Secure
Utilize accurate stream : Yes
Defeat audio cache : Yes
Make use of C2 pointers : No

Read offset correction : 96
Overread into Lead-In and Lead-Out : No
Fill up missing offset samples with silence : Yes
Delete leading and trailing silent blocks : No
Null samples used in CRC calculations : Yes
Used interface : Native Win32 interface for Win NT & 2000
Gap handling : Appended to previous track

Used output format : User Defined Encoder
Selected bitrate : 768 kBit/s
Quality : High
Add ID3 tag : No
Command line compressor : C:\Program Files\Exact Audio Copy\FLAC\FLAC.exe
Additional command line options : -8 -A tukey(0.25) -A gauss(0.1875) -b 4096 -V -T "artist=%a" -T "title=%t" -T "album=%g" -T "date=%y" -T "tracknumber=%n" -T "genre=%m" %s –sector-align


TOC of the extracted CD

Track | Start | Length | Start sector | End sector
––––––––––––––––––––––––––––-
1 | 0:00.00 | 4:29.40 | 0 | 20214
2 | 4:29.40 | 2:42.74 | 20215 | 32438
3 | 7:12.39 | 2:20.39 | 32439 | 42977
4 | 9:33.03 | 4:37.50 | 42978 | 63802
5 | 14:10.53 | 4:00.23 | 63803 | 81825
6 | 18:11.01 | 1:31.00 | 81826 | 88650
7 | 19:42.01 | 3:08.73 | 88651 | 102823
8 | 22:50.74 | 1:39.59 | 102824 | 110307
9 | 24:30.58 | 0:58.63 | 110308 | 114720
10 | 25:29.46 | 1:01.50 | 114721 | 119345
11 | 26:31.21 | 2:37.06 | 119346 | 131126
12 | 29:08.27 | 3:28.10 | 131127 | 146736
13 | 32:36.37 | 3:41.71 | 146737 | 163382
14 | 36:18.33 | 5:06.25 | 163383 | 186357
15 | 41:24.58 | 3:30.15 | 186358 | 202122
16 | 44:54.73 | 4:28.13 | 202123 | 222235
17 | 49:23.11 | 5:12.71 | 222236 | 245706
18 | 54:36.07 | 2:59.36 | 245707 | 259167
19 | 57:35.43 | 2:21.66 | 259168 | 269808
20 | 59:57.34 | 4:48.33 | 269809 | 291441
21 | 64:45.67 | 4:58.69 | 291442 | 313860


Track 1

Filename C:\cuntfist\FLAC\VA - True Blue, The Best Of Sonic The Hedgehog (2008) [FLAC] {Wave Master Entertainment}\01 - Crush 40 - Live & Learn.wav

Pre-gap length 0:00:02.00

Peak level 100.0 %
Track quality 100.0 %
Test CRC 1FC9ADB9
Copy CRC 1FC9ADB9
Track not present in AccurateRip database
Copy OK

Track 2

Filename C:\cuntfist\FLAC\VA - True Blue, The Best Of Sonic The Hedgehog (2008) [FLAC] {Wave Master Entertainment}\02 - Tony Harnell - It Doesn't Matter (SA2 Version).wav

Peak level 96.6 %
Track quality 100.0 %
Test CRC 79540B48
Copy CRC 79540B48
Track not present in AccurateRip database
Copy OK

Track 3

Filename C:\cuntfist\FLAC\VA - True Blue, The Best Of Sonic The Hedgehog (2008) [FLAC] {Wave Master Entertainment}\03 - Ted Poley & Tony Harnell - Escape From The City.wav

Pre-gap length 0:00:00.02

Peak level 96.6 %
Track quality 100.0 %
Test CRC 790D3881
Copy CRC 790D3881
Track not present in AccurateRip database
Copy OK

Track 4

Filename C:\cuntfist\FLAC\VA - True Blue, The Best Of Sonic The Hedgehog (2008) [FLAC] {Wave Master Entertainment}\04 - Ali Tabatabaee & Matty Lewis from Zebrahead - His World.wav

Peak level 97.7 %
Track quality 100.0 %
Test CRC E27140E8
Copy CRC E27140E8
Track not present in AccurateRip database
Copy OK

Track 5

Filename C:\cuntfist\FLAC\VA - True Blue, The Best Of Sonic The Hedgehog (2008) [FLAC] {Wave Master Entertainment}\05 - Richard Jacques & T.J.Davis - Super Sonic Racing.wav

Peak level 100.0 %
Track quality 100.0 %
Test CRC 12E1AD5C
Copy CRC 12E1AD5C
Track not present in AccurateRip database
Copy OK

Track 6

Filename C:\cuntfist\FLAC\VA - True Blue, The Best Of Sonic The Hedgehog (2008) [FLAC] {Wave Master Entertainment}\06 - Masafumi Ogata & Keiko Utoku - Sonic - You Can Do Anything (Japanese Edition).wav

Peak level 94.9 %
Track quality 99.8 %
Test CRC E8262E9C
Copy CRC E8262E9C
Track not present in AccurateRip database
Copy OK

Track 7

Filename C:\cuntfist\FLAC\VA - True Blue, The Best Of Sonic The Hedgehog (2008) [FLAC] {Wave Master Entertainment}\07 - Spencer Nilsen & Pastiche - Sonic Boom (U.S. Edition).wav

Peak level 100.0 %
Track quality 100.0 %
Test CRC D1A3D28F
Copy CRC D1A3D28F
Track not present in AccurateRip database
Copy OK

Track 8

Filename C:\cuntfist\FLAC\VA - True Blue, The Best Of Sonic The Hedgehog (2008) [FLAC] {Wave Master Entertainment}\08 - Tomonori Sawada & Runblebee - Sonic Speed Riders.wav

Pre-gap length 0:00:00.04

Peak level 100.0 %
Track quality 100.0 %
Test CRC B999A3B3
Copy CRC B999A3B3
Track not present in AccurateRip database
Copy OK

Track 9

Filename C:\cuntfist\FLAC\VA - True Blue, The Best Of Sonic The Hedgehog (2008) [FLAC] {Wave Master Entertainment}\09 - Jun Senoue & Ted Poley - Race To Win.wav

Peak level 100.0 %
Track quality 100.0 %
Test CRC DDADE410
Copy CRC DDADE410
Track not present in AccurateRip database
Copy OK

Track 10

Filename C:\cuntfist\FLAC\VA - True Blue, The Best Of Sonic The Hedgehog (2008) [FLAC] {Wave Master Entertainment}\10 - Russell Velazquez, Joseph Garrity, Norman Grossfield - Sonic X Theme (U.S. Edition).wav

Peak level 100.0 %
Track quality 100.0 %
Test CRC 853F6DA3
Copy CRC 853F6DA3
Track not present in AccurateRip database
Copy OK

Track 11

Filename C:\cuntfist\FLAC\VA - True Blue, The Best Of Sonic The Hedgehog (2008) [FLAC] {Wave Master Entertainment}\11 - Hideki Naganuma - Right There, Ride On (Digital Remakin' Trax).wav

Peak level 74.1 %
Track quality 99.9 %
Test CRC D16F9A09
Copy CRC D16F9A09
Track not present in AccurateRip database
Copy OK

Track 12

Filename C:\cuntfist\FLAC\VA - True Blue, The Best Of Sonic The Hedgehog (2008) [FLAC] {Wave Master Entertainment}\12 - Crush 40 - Sonic Heroes.wav

Peak level 94.4 %
Track quality 99.9 %
Test CRC B53BA231
Copy CRC B53BA231
Track not present in AccurateRip database
Copy OK

Track 13

Filename C:\cuntfist\FLAC\VA - True Blue, The Best Of Sonic The Hedgehog (2008) [FLAC] {Wave Master Entertainment}\13 - Crush 40 - What I'm Made Of….wav

Peak level 100.0 %
Track quality 100.0 %
Test CRC F62C934C
Copy CRC F62C934C
Track not present in AccurateRip database
Copy OK

Track 14

Filename C:\cuntfist\FLAC\VA - True Blue, The Best Of Sonic The Hedgehog (2008) [FLAC] {Wave Master Entertainment}\14 - Kenichi Tokoi & Steve Conte - Seven Rings In Hand.wav

Peak level 100.0 %
Track quality 100.0 %
Test CRC B5A7F547
Copy CRC B5A7F547
Track not present in AccurateRip database
Copy OK

Track 15

Filename C:\cuntfist\FLAC\VA - True Blue, The Best Of Sonic The Hedgehog (2008) [FLAC] {Wave Master Entertainment}\15 - Tomoya Ohtani & Zebrahead - His World (Zebrahead Version).wav

Peak level 100.0 %
Track quality 99.9 %
Test CRC 68ED9876
Copy CRC 68ED9876
Track not present in AccurateRip database
Copy OK

Track 16

Filename C:\cuntfist\FLAC\VA - True Blue, The Best Of Sonic The Hedgehog (2008) [FLAC] {Wave Master Entertainment}\16 - Jun Senoue & Tony Harnell - It Doesn't Matter (SA1 Version).wav

Peak level 94.4 %
Track quality 100.0 %
Test CRC 87381A04
Copy CRC 87381A04
Track not present in AccurateRip database
Copy OK

Track 17

Filename C:\cuntfist\FLAC\VA - True Blue, The Best Of Sonic The Hedgehog (2008) [FLAC] {Wave Master Entertainment}\17 - Jun Senoue, Kenichi Tokoi, Johnny Gioeli, Crush 40 - Open Your Heart.wav

Peak level 89.1 %
Track quality 100.0 %
Test CRC DB63BD11
Copy CRC DB63BD11
Track not present in AccurateRip database
Copy OK

Track 18

Filename C:\cuntfist\FLAC\VA - True Blue, The Best Of Sonic The Hedgehog (2008) [FLAC] {Wave Master Entertainment}\18 - Tomoya Ohtani & Tahirih Walker - A New Venture (Surfin' S.R.A. Remix).wav

Peak level 100.0 %
Track quality 100.0 %
Test CRC E01A88BE
Copy CRC E01A88BE
Track not present in AccurateRip database
Copy OK

Track 19

Filename C:\cuntfist\FLAC\VA - True Blue, The Best Of Sonic The Hedgehog (2008) [FLAC] {Wave Master Entertainment}\19 - SEGA & Jun Senoue - Angel Island Zone (SSBB Remix).wav

Peak level 100.0 %
Track quality 100.0 %
Test CRC D93A0553
Copy CRC D93A0553
Track not present in AccurateRip database
Copy OK

Track 20

Filename C:\cuntfist\FLAC\VA - True Blue, The Best Of Sonic The Hedgehog (2008) [FLAC] {Wave Master Entertainment}\20 - Crush 40 - Seven Rings In Hand (Crush 40 Version).wav

Peak level 100.0 %
Track quality 100.0 %
Test CRC 53E76E25
Copy CRC 53E76E25
Track not present in AccurateRip database
Copy OK

Track 21

Filename C:\cuntfist\FLAC\VA - True Blue, The Best Of Sonic The Hedgehog (2008) [FLAC] {Wave Master Entertainment}\21 - Crush 40 featuring Bentley Jones - Open Your Heart (Crush 40 vs. Bentley Jones Remix).wav

Peak level 92.2 %
Track quality 100.0 %
Test CRC C5D26BE1
Copy CRC C5D26BE1
Track not present in AccurateRip database
Copy OK


None of the tracks are present in the AccurateRip database

No errors occurred

End of status report


VA - True Blue: The Best Of Sonic The Hedgehog (2008) {Wave Master Entertainment}


Thank you to the original uploader.