Tags
Language
Tags

VA - Tyson: A Taste Of Country (1995) {MCA} **[RE-UP]**

Posted By: TestTickles
VA - Tyson: A Taste Of Country (1995) {MCA} **[RE-UP]**

VA - Tyson: A Taste Of Country (1995) {MCA}
EAC Rip | FLAC with CUE and log | scans | 178 mb
MP3 CBR 320kbps | RAR | 66 mb
Genre: country

Tyson: A Taste Of Country is a 1995 compilation album released through MCA Records. It was made in conjunction with the Tyson company that makes and sells chicken.

VA - Tyson: A Taste Of Country (1995) {MCA} **[RE-UP]**

1. The Mavericks - What A Crying Shame
2. Vince Gill - Never Knew Lonely
3. David Lee Murphy - Fish Ain't Bitin'
4. Patty Loveless - Hurt Me Bad (In A Real Good Way)
5. Mark Chesnutt - I'll Think Of Something
6. Marty Stuart - Tempted
7. Kelly Willis - Baby Take A Piece Of My Heart
8. McBride & The Ride - Hurry Sundown

Exact Audio Copy V1.1 from 23. June 2015

EAC extraction logfile from 22. November 2016, 22:11

Various Artists / Tyson: A Taste Of Country

Used drive : TEAC DVD-ROM DV-28SW Adapter: 1 ID: 0

Read mode : Secure
Utilize accurate stream : Yes
Defeat audio cache : Yes
Make use of C2 pointers : No

Read offset correction : 6
Overread into Lead-In and Lead-Out : No
Fill up missing offset samples with silence : Yes
Delete leading and trailing silent blocks : No
Null samples used in CRC calculations : Yes
Used interface : Native Win32 interface for Win NT & 2000
Gap handling : Appended to previous track

Used output format : Internal WAV Routines
Sample format : 44.100 Hz; 16 Bit; Stereo


TOC of the extracted CD

Track | Start | Length | Start sector | End sector
––––––––––––––––––––––––––––-
1 | 0:00.37 | 3:53.13 | 37 | 17524
2 | 3:53.50 | 4:01.50 | 17525 | 35649
3 | 7:55.25 | 2:48.50 | 35650 | 48299
4 | 10:44.00 | 3:03.25 | 48300 | 62049
5 | 13:47.25 | 4:14.00 | 62050 | 81099
6 | 18:01.25 | 3:14.12 | 81100 | 95661
7 | 21:15.37 | 3:46.63 | 95662 | 112674
8 | 25:02.25 | 3:34.62 | 112675 | 128786


Track 1

Filename C:\My Documents\My FLAC\VA - Tyson, A Taste Of Country (1995) [FLAC] {MCA}\01 - The Mavericks - What A Crying Shame.wav

Pre-gap length 0:00:02.37

Peak level 89.8 %
Extraction speed 2.8 X
Track quality 100.0 %
Test CRC 8C9364B8
Copy CRC 8C9364B8
Track not present in AccurateRip database
Copy OK

Track 2

Filename C:\My Documents\My FLAC\VA - Tyson, A Taste Of Country (1995) [FLAC] {MCA}\02 - Vince Gill - Never Knew Lonely.wav

Pre-gap length 0:00:01.74

Peak level 95.3 %
Extraction speed 2.7 X
Track quality 99.9 %
Test CRC ABBFC1F8
Copy CRC ABBFC1F8
Track not present in AccurateRip database
Copy OK

Track 3

Filename C:\My Documents\My FLAC\VA - Tyson, A Taste Of Country (1995) [FLAC] {MCA}\03 - David Lee Murphy - Fish Ain't Bitin'.wav

Pre-gap length 0:00:02.24

Peak level 100.0 %
Extraction speed 2.4 X
Track quality 99.9 %
Test CRC FF9B72C5
Copy CRC FF9B72C5
Track not present in AccurateRip database
Copy OK

Track 4

Filename C:\My Documents\My FLAC\VA - Tyson, A Taste Of Country (1995) [FLAC] {MCA}\04 - Patty Loveless - Hurt Me Bad (In A Real Good Way).wav

Pre-gap length 0:00:02.32

Peak level 89.8 %
Extraction speed 3.3 X
Track quality 100.0 %
Test CRC D69FBB50
Copy CRC D69FBB50
Track not present in AccurateRip database
Copy OK

Track 5

Filename C:\My Documents\My FLAC\VA - Tyson, A Taste Of Country (1995) [FLAC] {MCA}\05 - Mark Chesnutt - I'll Think Of Something.wav

Pre-gap length 0:00:02.02

Peak level 78.9 %
Extraction speed 3.7 X
Track quality 100.0 %
Test CRC 2714C8C7
Copy CRC 2714C8C7
Track not present in AccurateRip database
Copy OK

Track 6

Filename C:\My Documents\My FLAC\VA - Tyson, A Taste Of Country (1995) [FLAC] {MCA}\06 - Marty Stuart - Tempted.wav

Pre-gap length 0:00:02.12

Peak level 78.9 %
Extraction speed 3.8 X
Track quality 100.0 %
Test CRC D4D0FB1F
Copy CRC D4D0FB1F
Track not present in AccurateRip database
Copy OK

Track 7

Filename C:\My Documents\My FLAC\VA - Tyson, A Taste Of Country (1995) [FLAC] {MCA}\07 - Kelly Wills - Baby Take A Piece Of My Heart.wav

Pre-gap length 0:00:02.11

Peak level 84.7 %
Extraction speed 4.1 X
Track quality 100.0 %
Test CRC 95D9F655
Copy CRC 95D9F655
Track not present in AccurateRip database
Copy OK

Track 8

Filename C:\My Documents\My FLAC\VA - Tyson, A Taste Of Country (1995) [FLAC] {MCA}\08 - McBride & The Ride - Hurry Sundown.wav

Pre-gap length 0:00:02.24

Peak level 87.3 %
Extraction speed 3.5 X
Track quality 99.9 %
Test CRC 5953CC7F
Copy CRC 5953CC7F
Track not present in AccurateRip database
Copy OK


None of the tracks are present in the AccurateRip database

No errors occurred

End of status report

–– CUETools DB Plugin V2.1.6

[CTDB TOCID: PiiQvLh7Nlsa6wMuwbu7TvQRrpc-] disk not present in database
Submit result: PiiQvLh7Nlsa6wMuwbu7TvQRrpc- has been uploaded


==== Log checksum 4C4926F490A145844C10B3DFFB4A9CE802724876C7EFBE5E51962950E8E79869 ====


VA - Tyson: A Taste Of Country (1995) {MCA} **[RE-UP]**