Subcategories
Tags
Language
Tags

Tab Smith - Ace High [Recorded 1952-1953] (1992)

Posted By: gribovar
Tab Smith - Ace High [Recorded 1952-1953] (1992)

Tab Smith - Ace High [Recorded 1952-1953] (1992)
EAC Rip | FLAC (image+.cue+log) - 340 MB | MP3 CBR 320 kbps (LAME 3.93) - 141 MB | Covers (5 MB) included
Genre: Jazz, Jump Blues, Swing | RAR 3% Rec. | Label: Delmark Records (DD-455)

During 1951-57, Tab Smith recorded extensively for the United label, and although he was initially popular (due to the hit record "Because of You"), nearly half of the 90 titles he cut went unissued. Delmark in their Tab Smith CD series plans to eventually come out with all of the performances. Their second Tab Smith release has 20 selections, including five songs being released for the first time. Smith, a former swing stylist who was best known in the R&B market during the 1950s, was not a honker like many others in the genre, and his mixture of relatively gentle stomps and ballads is appealing. The distinctive altoist (who takes four vocals) is often joined by Sonny Cohn (mistakenly listed as "Sammy Cohn") or Irving Woods on trumpet and Leon Washington or Charlie Wright on tenor, along with a rocking rhythm section, on four complete sessions from 1952-53. Fun if not essential music.
Tracklist:
01. Cottage for Sale
02. Sunny Side of the Street
03. Tis Autumn
04. Teddy's Brannin'
05. Strange
06. These Foolish Things
07. Ace High
08. Auf Wiedersehn
09. Cuban Boogie
10. My Mother's Eyes
11. I've Had the Blues All Day
12. You Belong to Me
13. Red Hot and Blue
14. A Bit of Blues
15. Pennies from Heaven
16. Seven Up
17. I Live True to You
18. Cherry
19. My Baby
20. Closin' Time

Total time: 57:52

Exact Audio Copy V1.5 from 20. February 2020

EAC extraction logfile from 11. November 2020, 20:59

Tab Smith / Ace High

Used drive : SlimtypeDVD A DS8A5SH Adapter: 1 ID: 0

Read mode : Secure
Utilize accurate stream : Yes
Defeat audio cache : Yes
Make use of C2 pointers : No

Read offset correction : 6
Overread into Lead-In and Lead-Out : No
Fill up missing offset samples with silence : Yes
Delete leading and trailing silent blocks : No
Null samples used in CRC calculations : Yes
Used interface : Native Win32 interface for Win NT & 2000

Used output format : Internal WAV Routines
Sample format : 44.100 Hz; 16 Bit; Stereo


TOC of the extracted CD

Track | Start | Length | Start sector | End sector
––––––––––––––––––––––––––––-
1 | 0:00.00 | 3:28.22 | 0 | 15621
2 | 3:28.22 | 2:42.10 | 15622 | 27781
3 | 6:10.32 | 2:55.20 | 27782 | 40926
4 | 9:05.52 | 2:49.65 | 40927 | 53666
5 | 11:55.42 | 2:59.65 | 53667 | 67156
6 | 14:55.32 | 2:46.38 | 67157 | 79644
7 | 17:41.70 | 2:30.00 | 79645 | 90894
8 | 20:11.70 | 2:46.50 | 90895 | 103394
9 | 22:58.45 | 2:25.42 | 103395 | 114311
10 | 25:24.12 | 3:13.28 | 114312 | 128814
11 | 28:37.40 | 2:45.37 | 128815 | 141226
12 | 31:23.02 | 2:56.68 | 141227 | 154494
13 | 34:19.70 | 2:36.25 | 154495 | 166219
14 | 36:56.20 | 2:57.65 | 166220 | 179559
15 | 39:54.10 | 2:54.05 | 179560 | 192614
16 | 42:48.15 | 2:56.25 | 192615 | 205839
17 | 45:44.40 | 3:10.32 | 205840 | 220121
18 | 48:54.72 | 2:53.48 | 220122 | 233144
19 | 51:48.45 | 2:52.15 | 233145 | 246059
20 | 54:40.60 | 3:11.07 | 246060 | 260391


Range status and errors

Selected range

Filename D:\Music\WAV\Tab Smith - Ace High (1992)\Tab Smith - Ace High.wav

Peak level 100.0 %
Extraction speed 3.0 X
Range quality 100.0 %
Test CRC CA8B0E73
Copy CRC CA8B0E73
Copy OK

No errors occurred


AccurateRip summary

Track 1 accurately ripped (confidence 5) [07E4EDE0] (AR v2)
Track 2 accurately ripped (confidence 5) [891BB5B1] (AR v2)
Track 3 accurately ripped (confidence 5) [CBF7AA70] (AR v2)
Track 4 accurately ripped (confidence 5) [7450919E] (AR v2)
Track 5 accurately ripped (confidence 5) [7392E6B2] (AR v2)
Track 6 accurately ripped (confidence 5) [F7F022C3] (AR v2)
Track 7 accurately ripped (confidence 5) [BC4EC601] (AR v2)
Track 8 accurately ripped (confidence 5) [9777A196] (AR v2)
Track 9 accurately ripped (confidence 5) [4172D811] (AR v2)
Track 10 accurately ripped (confidence 5) [49FAE095] (AR v2)
Track 11 accurately ripped (confidence 5) [CE6CA4AA] (AR v2)
Track 12 accurately ripped (confidence 5) [F6178A96] (AR v2)
Track 13 accurately ripped (confidence 5) [E930F62C] (AR v2)
Track 14 accurately ripped (confidence 5) [2B42D4B1] (AR v2)
Track 15 accurately ripped (confidence 5) [84B184CC] (AR v2)
Track 16 accurately ripped (confidence 5) [5489D4F6] (AR v2)
Track 17 accurately ripped (confidence 5) [B0414D25] (AR v2)
Track 18 accurately ripped (confidence 5) [770BA2FD] (AR v2)
Track 19 accurately ripped (confidence 5) [42A6A841] (AR v2)
Track 20 accurately ripped (confidence 5) [9CEF1100] (AR v2)

All tracks accurately ripped

End of status report

==== Log checksum B3E53D09A65CCD353C2042365F93E19010A64C093B892D2A132FBFCE3D2B50FD ====

[CUETools log; Date: 30.11.2020 18:49:19; Version: 2.1.4]
[CTDB TOCID: ph4dq1KZeS0cCxJk0sVPHMFa.XI-] found.
Track | CTDB Status
1 | (3/3) Accurately ripped
2 | (3/3) Accurately ripped
3 | (3/3) Accurately ripped
4 | (3/3) Accurately ripped
5 | (3/3) Accurately ripped
6 | (3/3) Accurately ripped
7 | (3/3) Accurately ripped
8 | (3/3) Accurately ripped
9 | (3/3) Accurately ripped
10 | (3/3) Accurately ripped
11 | (3/3) Accurately ripped
12 | (3/3) Accurately ripped
13 | (3/3) Accurately ripped
14 | (3/3) Accurately ripped
15 | (2/3) Accurately ripped
16 | (3/3) Accurately ripped
17 | (3/3) Accurately ripped
18 | (3/3) Accurately ripped
19 | (3/3) Accurately ripped
20 | (3/3) Accurately ripped
[AccurateRip ID: 00298865-025f77d9-0f0d8f14] found.
Track [ CRC | V2 ] Status
01 [90cb1e5a|07e4ede0] (0+5/5) Accurately ripped
02 [e3ace7e5|891bb5b1] (0+5/5) Accurately ripped
03 [9d995449|cbf7aa70] (0+5/5) Accurately ripped
04 [a97eb2f7|7450919e] (0+5/5) Accurately ripped
05 [bbbda777|7392e6b2] (0+5/5) Accurately ripped
06 [aa2fbfee|f7f022c3] (0+5/5) Accurately ripped
07 [05b5890a|bc4ec601] (0+5/5) Accurately ripped
08 [fae495bf|9777a196] (0+5/5) Accurately ripped
09 [1baa1279|4172d811] (0+5/5) Accurately ripped
10 [04291330|49fae095] (0+5/5) Accurately ripped
11 [d59c7f5a|ce6ca4aa] (0+5/5) Accurately ripped
12 [10b1a841|f6178a96] (0+5/5) Accurately ripped
13 [ad6c6ad7|e930f62c] (0+5/5) Accurately ripped
14 [8c3d52c1|2b42d4b1] (0+5/5) Accurately ripped
15 [0fbaa636|84b184cc] (0+5/5) Accurately ripped
16 [9606e988|5489d4f6] (0+5/5) Accurately ripped
17 [3ab3d265|b0414d25] (0+5/5) Accurately ripped
18 [64676087|770ba2fd] (0+5/5) Accurately ripped
19 [a8c557c5|42a6a841] (0+5/5) Accurately ripped
20 [f6a5cbcf|9cef1100] (0+5/5) Accurately ripped

Track Peak [ CRC32 ] [W/O NULL] [ LOG ]
– 100,0 [CA8B0E73] [958B7321] CRC32
01 97,4 [4F8752B6] [0AD29D79]
02 97,4 [509E71CC] [02F543B1]
03 91,8 [D1BDE05E] [887EDFC0]
04 100,0 [706F4BC9] [BB5B0BB8]
05 97,6 [D4D1577F] [15C39D8B]
06 100,0 [93C1AB2E] [FD5F9764]
07 100,0 [0CC3F65E] [A817F120]
08 99,2 [65BF7753] [428B87DB]
09 100,0 [D3FF5F55] [EA39D7B9]
10 84,1 [DD2FB02D] [C9D62F82]
11 100,0 [E3747549] [5DAE128E]
12 84,3 [2EA90220] [6C713596]
13 97,1 [778ABB0A] [BD49C43B]
14 91,1 [99B41F43] [0B13AFA8]
15 92,0 [2E06DD81] [AD59BFF7]
16 90,1 [63DD1863] [B0F5EEAD]
17 98,6 [F6A517CB] [C1306087]
18 72,2 [B32CFA6A] [86F77F21]
19 89,4 [299BC6B7] [ED9291E1]
20 97,3 [C6C49CB3] [C1EF558F]

Thanks to Leshi067

See also:
Tab Smith - Jump Time [Recorded 1951-1952] (1991)