Tags
Language
Tags
June 2024
Su Mo Tu We Th Fr Sa
26 27 28 29 30 31 1
2 3 4 5 6 7 8
9 10 11 12 13 14 15
16 17 18 19 20 21 22
23 24 25 26 27 28 29
30 1 2 3 4 5 6

London SO, Igor Markevitch - P.I. Tchaikovsky: Symphonies Nos. 4, 5 & 6 'Pathetique' (1993) Recorded 1962-1966, 2CDs

Posted By: Designol
London SO, Igor Markevitch - P.I. Tchaikovsky: Symphonies Nos. 4, 5 & 6 'Pathetique' (1993) Recorded 1962-1966, 2CDs

Tchaikovsky - Symphonies Nos. 4, 5 & 6 'Pathétique' (1993) [Recorded 1962-1966]
London Symphony Orchestra, conducted by Igor Markevitch

EAC | FLAC | Image (Cue&Log) ~ 630 Mb | Mp3 (CBR320) ~ 315 Mb | Scans included
Classical, Romantic | Label: Philips | # 438 335-2 | Time: 02:11:57

The last three symphonies remain for many listeners the ultimate expression of musical romanticism. Their gorgeous tunes, luscious orchestration, and huge emotional range tempt many interpreters to extremes of musical excess– but not Igor Markevitch. These brilliantly played, exceptionally precise performances let the hysteria speak for itself, while focusing on the music's architectural strength. The results are uncommonly exciting, supple, and above all sensitive to the music's many beauties. Having withstood the test of time, and at two discs for the price of one, this might very well be a first choice for newcomers and collectors alike. Excellent recorded sound too.

Review by David Hurwitz

London SO, Igor Markevitch - P.I. Tchaikovsky: Symphonies Nos. 4, 5 & 6 'Pathetique' (1993) Recorded 1962-1966, 2CDs



London SO, Igor Markevitch - P.I. Tchaikovsky: Symphonies Nos. 4, 5 & 6 'Pathetique' (1993) Recorded 1962-1966, 2CDs



Tracklist:

CD1:

Symphonie No 4 en fa mineur, Op. 36

01. I. Andante sostenuto. Moderato con anima (18:28)
02. II. Andantino in modo di canzona (09:39)
03. III. Scherzo (pizzikato ostinato): Allegro (05:30)
04. IV. Finale: Allegro con fuoco (08:56)

Symphonie No 5 en mi mineur, Op. 64

05. I. Andante. Allegro com anima (12:35)
06. II. Andate cantabile, con alcuna licenza (12:26)

CD2:

Symphonie No 5 en mi mineur, Op. 64

01. III. Valse: Allegro moderato (05:31)
02. IV. Finale: Andante maestoso. Allegro vivace (13:07)

Symphonie No 6 en si mineur «Pathétique», Op. 74

03. I. Adagio. Allegro non troppo. Moderato. Allegro vivo (18:45)
04. II. Allegro con grazia (07:39)
05. III. Allegro molto vivace (09:27)
06. IV. Finale: Adagio lamentoso. Andante (09:54)


Exact Audio Copy V1.0 beta 3 from 29. August 2011

EAC extraction logfile from 15. February 2014, 22:21

Igor Markevitch / Tchaikovsky - Symphonies Nos.4, 5 & 6 - Igor Markevich

Used drive : TSSTcorpCDDVDW SH-222BB Adapter: 2 ID: 1

Read mode : Secure
Utilize accurate stream : Yes
Defeat audio cache : Yes
Make use of C2 pointers : No

Read offset correction : 6
Overread into Lead-In and Lead-Out : No
Fill up missing offset samples with silence : Yes
Delete leading and trailing silent blocks : No
Null samples used in CRC calculations : Yes
Used interface : Native Win32 interface for Win NT & 2000

Used output format : User Defined Encoder
Selected bitrate : 1024 kBit/s
Quality : High
Add ID3 tag : No
Command line compressor : C:\Program Files\Exact Audio Copy\Flac\flac.exe
Additional command line options : -8 -V -T "TITLE=%title%" -T "ARTIST=%artist%" -T "ALBUMARTIST=%albumartist%" -T "ALBUM=%albumtitle%" -T "DATE=%year%" -T "TRACKNUMBER=%tracknr%" -T "TRACKTOTAL=%numtracks%" -T "GENRE=%genre%" -T "COMMENT=%comment%" -T "PERFORMER=%albuminterpret%" -T "COMPOSER=%composer%" %source% -o %dest%


TOC of the extracted CD

Track | Start | Length | Start sector | End sector
––––––––––––––––––––––––––––-
1 | 0:00.33 | 18:28.00 | 33 | 83132
2 | 18:28.33 | 9:39.00 | 83133 | 126557
3 | 28:07.33 | 5:30.00 | 126558 | 151307
4 | 33:37.33 | 8:56.00 | 151308 | 191507
5 | 42:33.33 | 12:35.00 | 191508 | 248132
6 | 55:08.33 | 12:26.00 | 248133 | 304082


Range status and errors

Selected range

Filename E:\3000\[3018] Tchaikovsky – Symphonies Nos.4, 5 & 6 – Igor Markevich\cd1\Tchaikovsky - Symphonies Nos.4, 5 & 6 - Igor Markevich.wav

Peak level 96.1 %
Extraction speed 2.3 X
Range quality 100.0 %
Test CRC AE1D4964
Copy CRC AE1D4964
Copy OK

No errors occurred


AccurateRip summary

Track 1 accurately ripped (confidence 15) [8D57DCFE] (AR v2)
Track 2 accurately ripped (confidence 16) [67E4B5B1] (AR v2)
Track 3 accurately ripped (confidence 16) [E89F0AAB] (AR v2)
Track 4 accurately ripped (confidence 16) [061DD11E] (AR v2)
Track 5 accurately ripped (confidence 16) [4EA135E0] (AR v2)
Track 6 accurately ripped (confidence 16) [9EC2C1FA] (AR v2)

All tracks accurately ripped

End of status report

foobar2000 1.3.8 / Dynamic Range Meter 1.1.1
log date: 2015-05-14 23:30:25

––––––––––––––––––––––––––––––––––––––––
Analyzed: LSO. Igor Markevitch / Tchaikovsky - Symphonies Nos. 4, 5, 6
––––––––––––––––––––––––––––––––––––––––

DR Peak RMS Duration Track
––––––––––––––––––––––––––––––––––––––––
DR11 -0.34 dB -17.27 dB 18:28 01-Symphonie No 4 en fa mineur, Op. 36: I. Andante sostenuto. — Moderato con anima
DR14 -1.43 dB -21.33 dB 9:39 02-Symphonie No 4 en fa mineur, Op. 36: II. Andantino in modo di canzona
DR15 -2.39 dB -23.59 dB 5:30 03-Symphonie No 4 en fa mineur, Op. 36: III. Scherzo (pizzikato ostinato): Allegro
DR11 -0.34 dB -15.98 dB 8:56 04-Symphonie No 4 en fa mineur, Op. 36: IV. Finale: Allegro con fuoco
DR13 -0.70 dB -20.55 dB 12:35 05-Symphonie No 5 en mi mineur, Op. 64: I. Andante. — Allegro com anima
DR14 -0.37 dB -21.56 dB 12:26 06-Symphonie No 5 en mi mineur, Op. 64: II. Andate cantabile, con alcuna licenza
––––––––––––––––––––––––––––––––––––––––

Number of tracks: 6
Official DR value: DR13

Samplerate: 44100 Hz
Channels: 2
Bits per sample: 16
Bitrate: 651 kbps
Codec: FLAC
================================================================================


Exact Audio Copy V1.0 beta 3 from 29. August 2011

EAC extraction logfile from 16. February 2014, 10:07

Igor Markevitch / Tchaikovsky - Symphonies Nos.4, 5 & 6 - Igor Markevich (Disc 2)

Used drive : TSSTcorpCDDVDW SH-222BB Adapter: 2 ID: 1

Read mode : Secure
Utilize accurate stream : Yes
Defeat audio cache : Yes
Make use of C2 pointers : No

Read offset correction : 6
Overread into Lead-In and Lead-Out : No
Fill up missing offset samples with silence : Yes
Delete leading and trailing silent blocks : No
Null samples used in CRC calculations : Yes
Used interface : Native Win32 interface for Win NT & 2000

Used output format : User Defined Encoder
Selected bitrate : 1024 kBit/s
Quality : High
Add ID3 tag : No
Command line compressor : C:\Program Files\Exact Audio Copy\Flac\flac.exe
Additional command line options : -8 -V -T "TITLE=%title%" -T "ARTIST=%artist%" -T "ALBUMARTIST=%albumartist%" -T "ALBUM=%albumtitle%" -T "DATE=%year%" -T "TRACKNUMBER=%tracknr%" -T "TRACKTOTAL=%numtracks%" -T "GENRE=%genre%" -T "COMMENT=%comment%" -T "PERFORMER=%albuminterpret%" -T "COMPOSER=%composer%" %source% -o %dest%


TOC of the extracted CD

Track | Start | Length | Start sector | End sector
––––––––––––––––––––––––––––-
1 | 0:00.33 | 5:31.00 | 33 | 24857
2 | 5:31.33 | 13:07.00 | 24858 | 83882
3 | 18:38.33 | 18:45.00 | 83883 | 168257
4 | 37:23.33 | 7:39.00 | 168258 | 202682
5 | 45:02.33 | 9:27.00 | 202683 | 245207
6 | 54:29.33 | 9:54.00 | 245208 | 289757


Range status and errors

Selected range

Filename E:\3000\[3018] Tchaikovsky – Symphonies Nos.4, 5 & 6 – Igor Markevich\cd2\Tchaikovsky - Symphonies Nos.4, 5 & 6 - Igor Markevich (Disc 2).wav

Peak level 93.0 %
Extraction speed 2.3 X
Range quality 100.0 %
Test CRC 59B00278
Copy CRC 59B00278
Copy OK

No errors occurred


AccurateRip summary

Track 1 accurately ripped (confidence 14) [5DEDDA71] (AR v2)
Track 2 accurately ripped (confidence 15) [8C133770] (AR v2)
Track 3 accurately ripped (confidence 15) [93D78E9B] (AR v2)
Track 4 accurately ripped (confidence 15) [D8E249AE] (AR v2)
Track 5 accurately ripped (confidence 15) [1843DF3F] (AR v2)
Track 6 accurately ripped (confidence 15) [98FB98A6] (AR v2)

All tracks accurately ripped

End of status report

foobar2000 1.3.8 / Dynamic Range Meter 1.1.1
log date: 2015-05-14 23:31:21

––––––––––––––––––––––––––––––––––––––––
Analyzed: LSO. Igor Markevitch / Tchaikovsky - Symphonies Nos. 4, 5, 6
––––––––––––––––––––––––––––––––––––––––

DR Peak RMS Duration Track
––––––––––––––––––––––––––––––––––––––––
DR16 -3.79 dB -28.36 dB 5:31 01-Symphonie No 5 en mi mineur, Op. 64: III. Valse: Allegro moderato
DR13 -0.62 dB -18.04 dB 13:07 02-Symphonie No 5 en mi mineur, Op. 64: IV. Finale: Andante maestoso. — Allegro vivace
DR11 -1.76 dB -19.63 dB 18:45 03-Symphonie No 6 en si mineur 'Pathetique', Op. 74: I. Adagio. — Allegro non troppo. — Moderato. — Allegro vivo
DR13 -3.44 dB -20.98 dB 7:39 04-Symphonie No 6 en si mineur 'Pathetique', Op. 74: II. Allegro con grazia
DR11 -1.26 dB -16.59 dB 9:27 05-Symphonie No 6 en si mineur 'Pathetique', Op. 74: III. Allegro molto vivace
DR12 -1.56 dB -19.36 dB 9:54 06-Symphonie No 6 en si mineur 'Pathetique', Op. 74: IV. Finale: Adagio lamentoso. — Andante
––––––––––––––––––––––––––––––––––––––––

Number of tracks: 6
Official DR value: DR13

Samplerate: 44100 Hz
Channels: 2
Bits per sample: 16
Bitrate: 656 kbps
Codec: FLAC
================================================================================

London SO, Igor Markevitch - P.I. Tchaikovsky: Symphonies Nos. 4, 5 & 6 'Pathetique' (1993) Recorded 1962-1966, 2CDs

London SO, Igor Markevitch - P.I. Tchaikovsky: Symphonies Nos. 4, 5 & 6 'Pathetique' (1993) Recorded 1962-1966, 2CDs

All thanks to original releaser

More interesting music in My Blog