Subcategories

Peter Wright, Royal Opera House, Miyako Yoshida, Steven McRae, Iohna Loots - Tchaikovsky: The Nutcracker (2010) [Blu-Ray]

Posted By: Vilboa
Peter Wright, Royal Opera House, Miyako Yoshida, Steven McRae, Iohna Loots - Tchaikovsky: The Nutcracker (2010) [Blu-Ray]

Peter Wright, Royal Opera House, Miyako Yoshida, Steven McRae, Iohna Loots - Tchaikovsky: The Nutcracker (2010) [Blu-Ray]
BluRay | BDMV | MPEG-4 AVC Video / 1080i / 29,970 fps | 108 min | 37,8 Gb
Audio1: LPCM Audio / 2.0 / 24-bit | Audio2: DTS-HD Master Audio / 5.1 / 48 kHz / 4271 kbps / 24-bit

BluRay-rip | AVC | MKV 1920x1080 / 6215 kbps / 29,97 fps | 108 min | 5,82 Gb
Audio: DTS / 6ch / 48.0 KHz / 24 bits
Classical | OPUS ARTE

This all-time ballet favourite, in which young Clara is swept into a fantasy adventure when one of her Christmas presents comes to life, is at its most enchanting in Peter Wright's glorious production - as fresh as ever in its 25th year. Tchaikovsky's ravishing score, period designs by Julia Trevelyan Oman (including an ingenious magical Christmas tree), an exquisite Sugar Plum Fairy (Miyako Yoshida) and chivalrous Prince (Steven McRae), the mysterious Drosselmeyer (Gary Avis) and vibrant dancing by The Royal Ballet make for a captivating performance.

Cast:
The Sugar Plum Fairy - Miyako Yoshida
The Prince - Steven McRae
Herr Drosselmeyer - Gary Avis
Clara - Iohna Loots
Hans-Peter / The Nutcracker - Ricardo Cervera
The Royal Ballet
The Orchestra of the Royal Opera House
Conductor - Koen Kessels
Choreography - Peter Wright after Lev Ivanov


General
ID : 0 (0x0)
Complete name : С:\THE_NUTCRACKER\BDMV\STREAM\00008.m2ts
Format : BDAV
Format/Info : Blu-ray Video
File size : 32.3 GiB
Duration : 1h 48mn
Overall bit rate mode : Variable
Overall bit rate : 42.7 Mbps
Maximum Overall bit rate : 48.0 Mbps

Video
ID : 4113 (0x1011)
Menu ID : 1 (0x1)
Format : AVC
Format/Info : Advanced Video Codec
Format profile : High@L4.1
Format settings, CABAC : Yes
Format settings, ReFrames : 2 frames
Codec ID : 27
Duration : 1h 48mn
Bit rate mode : Variable
Width : 1 920 pixels
Height : 1 080 pixels
Display aspect ratio : 16:9
Frame rate : 29.970 fps
Color space : YUV
Chroma subsampling : 4:2:0
Bit depth : 8 bits
Scan type : Interlaced
Scan order : Top Field First

Audio #1
ID : 4352 (0x1100)
Menu ID : 1 (0x1)
Format : DTS
Format/Info : Digital Theater Systems
Format profile : MA / Core
Mode : 16
Format settings, Endianness : Big
Muxing mode : Stream extension
Codec ID : 134
Duration : 1h 48mn
Bit rate mode : Variable
Bit rate : Unknown / 1 509 Kbps
Channel(s) : 6 channels
Channel positions : Front: L C R, Side: L R, LFE
Sampling rate : 48.0 KHz
Bit depth : 24 bits
Compression mode : Lossless / Lossy

Audio #2
ID : 4353 (0x1101)
Menu ID : 1 (0x1)
Format : PCM
Format settings, Endianness : Big
Format settings, Sign : Signed
Muxing mode : Blu-ray
Codec ID : 128
Duration : 1h 48mn
Bit rate mode : Constant
Bit rate : 2 304 Kbps
Channel(s) : 2 channels
Channel positions : Front: L R
Sampling rate : 48.0 KHz
Bit depth : 24 bits
Stream size : 1.74 GiB (5%)


General
Unique ID : 174572946613836936745402730004546881806 (0x835586CB1614A2C1990AD1C8146C890E)
Complete name : C:\The_Nutcracker_ROH.mkv
Format : Matroska
Format version : Version 2
File size : 5.82 GiB
Duration : 1h 48mn
Overall bit rate : 7 692 Kbps
Movie name : The_Nutcracker_ROH_t00
Encoded date : UTC 2017-09-18 16:39:13
Writing application : DVDFab 9.1.6.8
Writing library : libebml v0.7.8 + libmatroska v0.8.1

Video
ID : 1
Format : AVC
Format/Info : Advanced Video Codec
Format profile : High@L4.1
Format settings, CABAC : Yes
Format settings, ReFrames : 2 frames
Codec ID : V_MPEG4/ISO/AVC
Duration : 1h 48mn
Bit rate : 6 215 Kbps
Width : 1 920 pixels
Height : 1 080 pixels
Display aspect ratio : 16:9
Frame rate mode : Constant
Frame rate : 29.970 fps
Color space : YUV
Chroma subsampling : 4:2:0
Bit depth : 8 bits
Scan type : Progressive
Bits/(Pixel*Frame) : 0.100
Stream size : 4.56 GiB (78%)
Writing library : x264 core 142
Encoding settings : cabac=1 / ref=1 / deblock=1:-1:-1 / analyse=0x3:0 / me=hex / subme=5 / psy=0 / mixed_ref=0 / me_range=16 / chroma_me=1 / trellis=0 / 8x8dct=1 / cqm=0 / deadzone=21,11 / fast_pskip=1 / chroma_qp_offset=0 / threads=8 / lookahead_threads=2 / sliced_threads=0 / nr=0 / decimate=1 / interlaced=0 / bluray_compat=0 / constrained_intra=0 / bframes=2 / b_pyramid=0 / b_adapt=1 / b_bias=0 / direct=1 / weightb=1 / open_gop=0 / weightp=0 / keyint=24 / keyint_min=13 / scenecut=40 / intra_refresh=0 / rc=abr / mbtree=0 / bitrate=6215 / ratetol=1.0 / qcomp=0.60 / qpmin=0 / qpmax=69 / qpstep=4 / ip_ratio=1.40 / pb_ratio=1.30 / aq=1:1.00
Default : Yes
Forced : No
Color primaries : BT.709
Transfer characteristics : BT.709
Matrix coefficients : BT.709
Color range : Limited

Audio
ID : 2
Format : DTS
Format/Info : Digital Theater Systems
Mode : 16
Format settings, Endianness : Big
Codec ID : A_DTS
Duration : 1h 48mn
Bit rate mode : Constant
Bit rate : 1 509 Kbps
Channel(s) : 6 channels
Channel positions : Front: L C R, Side: L R, LFE
Sampling rate : 48.0 KHz
Bit depth : 24 bits
Compression mode : Lossy
Stream size : 1.14 GiB (20%)
Default : Yes
Forced : No

Menu
00:00:00.000 : en:Chapter 01
00:01:16.509 : en:Chapter 02
00:04:29.869 : en:Chapter 03
00:08:36.816 : en:Chapter 04
00:11:26.752 : en:Chapter 05
00:14:22.027 : en:Chapter 06
00:20:48.513 : en:Chapter 07
00:28:40.719 : en:Chapter 08
00:32:06.190 : en:Chapter 09
00:36:24.282 : en:Chapter 10
00:40:05.035 : en:Chapter 11
00:44:04.808 : en:Chapter 12
00:51:36.827 : en:Chapter 13
00:55:54.617 : en:Chapter 14
01:01:57.480 : en:Chapter 15
01:03:26.369 : en:Chapter 16
01:08:16.759 : en:Chapter 17
01:09:33.135 : en:Chapter 18
01:11:06.295 : en:Chapter 19
01:13:49.024 : en:Chapter 20
01:21:50.872 : en:Chapter 21
01:28:18.026 : en:Chapter 22
01:29:32.600 : en:Chapter 23
01:32:32.013 : en:Chapter 24
01:34:40.174 : en:Chapter 25
01:38:30.237 : en:Chapter 26
01:41:04.758 : en:Chapter 27

All screenshots taken from BDRip

Peter Wright, Royal Opera House, Miyako Yoshida, Steven McRae, Iohna Loots - Tchaikovsky: The Nutcracker (2010) [Blu-Ray]