Tags
Language
Tags
November 2022
Su Mo Tu We Th Fr Sa
30 31 1 2 3 4 5
6 7 8 9 10 11 12
13 14 15 16 17 18 19
20 21 22 23 24 25 26
27 28 29 30 1 2 3

Teddy Wilson And His Orchestra - 1939 (1991)

Posted By: gribovar
Teddy Wilson And His Orchestra - 1939 (1991)

Teddy Wilson And His Orchestra - 1939 (1991)
EAC Rip | FLAC (tracks+.cue+log) - 199 MB | Covers (5 MB) included
Genre: Jazz, Swing | RAR 3% Rec. | Label: Classics Records (CLASSICS 571)

This CD has quite a bit of variety. Teddy Wilson is featured on four of his better piano solos, backs Billie Holiday on one session (which resulted in superior versions of "More Than You Know" and "Sugar," and has some fine solo space for altoist Benny Carter and trumpeter Roy Eldridge) and is heard on 13 selections with his new (and unfortunately short-lived) big band. The Teddy Wilson Orchestra was impeccable, tasteful and swinging (just like its leader) but, despite the presence of such soloists as trumpeter Harold "Shorty" Baker and tenor saxophonist Ben Webster, it never really stood a chance in the competitive swing world of 1939; the orchestra would only record eight additional titles. However the music on this CD is quite enjoyable and not as common as most of the recordings reissued by the Classics label.
Tracklist:
01. Coquette
02. China Boy
03. Melody In F
04. When You And I Were Young, Maggie
05. What Shall I Say?
06. It's Easy To Blame The Weather
07. More Than You Know
08. Sugar
09. Why Begin Again?
10. Jumpin' For Joy
11. Booly-Ja-Ja
12. The Man I Love
13. Exactly Like You
14. Love Grows On The White Oak Tree
15. This Is The Moment
16. Early Session Hop
17. Lady Of Mystery
18. Jumpin' On The Blacks And Whites
19. Little Things That Mean So Much
20. Hallelujah
21. Some Other Spring

Total time: 01:01:15

EAC extraction logfile from 11. November 2007, 21:48 for CD
Teddy Wilson / The Chronogical 1939

Used drive : HL-DT-STCDRW/DVD GCC4482 Adapter: 1 ID: 0
Read mode : Secure with NO C2, accurate stream, disable cache
Read offset correction : 6
Overread into Lead-In and Lead-Out : No

Used output format : C:\Eac\Codecs\flac.exe (User Defined Encoder)
320 kBit/s
Additional command line options : -8 -V -T "artist=%a" -T "title=%t" -T "album=%g" -T "date=%y" -T "tracknumber=%n" -T "genre=%m" -T "comment=EAC Flac 1.1.2 -8" %s

Other options :
Fill up missing offset samples with silence : Yes
Delete leading and trailing silent blocks : No
Installed external ASPI interface


Track 1
Filename C:\Documents and Settings\tw\01 - Coquette.wav

Pre-gap length 0:00:02.42

Peak level 94.8 %
Track quality 99.9 %
Test CRC A3361A45
Copy CRC A3361A45
Copy OK

Track 2
Filename C:\Documents and Settings\tw\02 - China Boy.wav

Pre-gap length 0:00:03.00

Peak level 81.7 %
Track quality 100.0 %
Test CRC B543F62C
Copy CRC B543F62C
Copy OK

Track 3
Filename C:\Documents and Settings\tw\03 - Melody In F.wav

Pre-gap length 0:00:02.44

Peak level 85.2 %
Track quality 99.9 %
Test CRC DD9AEF7D
Copy CRC DD9AEF7D
Copy OK

Track 4
Filename C:\Documents and Settings\tw\04 - When You And I Were Young, Maggie.wav

Pre-gap length 0:00:02.76

Peak level 75.8 %
Track quality 100.0 %
Test CRC 902F193A
Copy CRC 902F193A
Copy OK

Track 5
Filename C:\Documents and Settings\tw\05 - What Shall I Say .wav

Pre-gap length 0:00:01.89

Peak level 74.3 %
Track quality 100.0 %
Test CRC 979C93B7
Copy CRC 979C93B7
Copy OK

Track 6
Filename C:\Documents and Settings\tw\06 - It's Easy To Blame The Weather.wav

Pre-gap length 0:00:02.04

Peak level 76.3 %
Track quality 100.0 %
Test CRC 226C5963
Copy CRC 226C5963
Copy OK

Track 7
Filename C:\Documents and Settings\tw\07 - More Than You Know.wav

Pre-gap length 0:00:01.97

Peak level 80.5 %
Track quality 100.0 %
Test CRC 625414E3
Copy CRC 625414E3
Copy OK

Track 8
Filename C:\Documents and Settings\tw\08 - Sugar.wav

Pre-gap length 0:00:02.26

Peak level 82.2 %
Track quality 100.0 %
Test CRC 9898A960
Copy CRC 9898A960
Copy OK

Track 9
Filename C:\Documents and Settings\tw\09 - Why Begin Again.wav

Pre-gap length 0:00:02.13

Peak level 91.9 %
Track quality 100.0 %
Test CRC 71AA03A8
Copy CRC 71AA03A8
Copy OK

Track 10
Filename C:\Documents and Settings\tw\10 - Jumpin' For Joy.wav

Pre-gap length 0:00:01.97

Peak level 84.2 %
Track quality 100.0 %
Test CRC 4626D924
Copy CRC 4626D924
Copy OK

Track 11
Filename C:\Documents and Settings\tw\11 - Booly-Ja-Ja.wav

Pre-gap length 0:00:02.06

Peak level 94.9 %
Track quality 100.0 %
Test CRC 3D28FD9C
Copy CRC 3D28FD9C
Copy OK

Track 12
Filename C:\Documents and Settings\tw\12 - The Man I Love.wav

Pre-gap length 0:00:02.00

Peak level 86.9 %
Track quality 100.0 %
Test CRC DE552EE0
Copy CRC DE552EE0
Copy OK

Track 13
Filename C:\Documents and Settings\tw\13 - Exactly Like You.wav

Pre-gap length 0:00:02.49

Peak level 77.9 %
Track quality 100.0 %
Test CRC 762683E2
Copy CRC 762683E2
Copy OK

Track 14
Filename C:\Documents and Settings\tw\14 - Love Grows On The White Oak Tree.wav

Pre-gap length 0:00:02.36

Peak level 79.7 %
Track quality 100.0 %
Test CRC D457F24C
Copy CRC D457F24C
Copy OK

Track 15
Filename C:\Documents and Settings\tw\15 - This Is The Moment.wav

Pre-gap length 0:00:02.04

Peak level 71.8 %
Track quality 100.0 %
Test CRC DB7A3385
Copy CRC DB7A3385
Copy OK

Track 16
Filename C:\Documents and Settings\tw\16 - Early Session Hop.wav

Pre-gap length 0:00:03.20

Peak level 58.0 %
Track quality 100.0 %
Test CRC 3E903873
Copy CRC 3E903873
Copy OK

Track 17
Filename C:\Documents and Settings\tw\17 - Lady of Mystery.wav

Pre-gap length 0:00:03.09

Peak level 57.9 %
Track quality 100.0 %
Test CRC 4AD01798
Copy CRC 4AD01798
Copy OK

Track 18
Filename C:\Documents and Settings\tw\18 - Jumpin' On The Blacks And Whites.wav

Pre-gap length 0:00:02.82

Peak level 64.2 %
Track quality 100.0 %
Test CRC CE10D19C
Copy CRC CE10D19C
Copy OK

Track 19
Filename C:\Documents and Settings\tw\19 - The Little Things That Mean So Much.wav

Pre-gap length 0:00:02.06

Peak level 65.1 %
Track quality 100.0 %
Test CRC 9009578F
Copy CRC 9009578F
Copy OK

Track 20
Filename C:\Documents and Settings\tw\20 - Hallelujah.wav

Pre-gap length 0:00:02.02

Peak level 71.4 %
Track quality 100.0 %
Test CRC 617E4B48
Copy CRC 617E4B48
Copy OK

Track 21
Filename C:\Documents and Settings\tw\21 - Some Other Spring.wav

Pre-gap length 0:00:02.13

Peak level 73.0 %
Track quality 100.0 %
Test CRC C9EF396E
Copy CRC C9EF396E
Copy OK

No errors occured


End of status report

[CUETools log; Date: 21.06.2018 23:18:55; Version: 2.1.4]
Pregap length 00:00:32.
[CTDB TOCID: flPW9IXt8ppsj4TiEpgx3aitAI0-] found.
Track | CTDB Status
1 | (3/3) Accurately ripped
2 | (3/3) Accurately ripped
3 | (3/3) Accurately ripped
4 | (3/3) Accurately ripped
5 | (3/3) Accurately ripped
6 | (3/3) Accurately ripped
7 | (3/3) Accurately ripped
8 | (3/3) Accurately ripped
9 | (3/3) Accurately ripped
10 | (3/3) Accurately ripped
11 | (3/3) Accurately ripped
12 | (3/3) Accurately ripped
13 | (3/3) Accurately ripped
14 | (3/3) Accurately ripped
15 | (3/3) Accurately ripped
16 | (3/3) Accurately ripped
17 | (3/3) Accurately ripped
18 | (3/3) Accurately ripped
19 | (3/3) Accurately ripped
20 | (3/3) Accurately ripped
21 | (3/3) Accurately ripped
[AccurateRip ID: 002dec4d-02c2141f-1f0e6615] found.
Track [ CRC | V2 ] Status
01 [cd05dc32|db84f9eb] (3+2/5) Accurately ripped
02 [df935dc0|6cd68f9c] (3+2/5) Accurately ripped
03 [6d76bd0e|c55af164] (3+2/5) Accurately ripped
04 [8d9ebe9d|9f9e1f3b] (3+2/5) Accurately ripped
05 [6511067c|c157b6a4] (3+2/5) Accurately ripped
06 [6d34a000|655eef3f] (3+2/5) Accurately ripped
07 [6752e902|347d04dc] (3+2/5) Accurately ripped
08 [b385a278|7fa16c34] (3+2/5) Accurately ripped
09 [144b090a|ceec1266] (3+2/5) Accurately ripped
10 [9c15fc49|594ff264] (3+2/5) Accurately ripped
11 [6066e8b6|5fe19669] (3+2/5) Accurately ripped
12 [42b904f9|f04b92a0] (3+2/5) Accurately ripped
13 [1081e3ca|16b4ee8e] (3+2/5) Accurately ripped
14 [567485a1|d3658fba] (3+2/5) Accurately ripped
15 [7e7fa74d|e580a560] (3+2/5) Accurately ripped
16 [6e6247da|2af73b1e] (3+2/5) Accurately ripped
17 [6beeebeb|f478a3a4] (3+2/5) Accurately ripped
18 [efc0ed1f|88fb62b8] (3+2/5) Accurately ripped
19 [0e88d79d|4d47abdf] (3+2/5) Accurately ripped
20 [31985f56|58edad36] (3+2/5) Accurately ripped
21 [70a4a643|2548e63a] (3+2/5) Accurately ripped

Track Peak [ CRC32 ] [W/O NULL] [ LOG ]
– 94,9 [81A5D3D4] [0C748CE2]
01 94,8 [A3361A45] [1DB07092] CRC32
02 81,7 [B543F62C] [1F1208B7] CRC32
03 85,2 [DD9AEF7D] [DBBB039B] CRC32
04 75,8 [902F193A] [FD269262] CRC32
05 74,3 [979C93B7] [1CE167E7] CRC32
06 76,3 [226C5963] [E9B7A6CE] CRC32
07 80,5 [625414E3] [BA4FD991] CRC32
08 82,2 [9898A960] [4BFAE184] CRC32
09 91,9 [71AA03A8] [CA16F817] CRC32
10 84,2 [4626D924] [A17E5BC9] CRC32
11 94,9 [3D28FD9C] [F451F80C] CRC32
12 86,9 [DE552EE0] [04429FE6] CRC32
13 77,9 [762683E2] [23132717] CRC32
14 79,7 [D457F24C] [666F035D] CRC32
15 71,8 [DB7A3385] [208FEA43] CRC32
16 57,9 [3E903873] [85CBB7F6] CRC32
17 57,9 [4AD01798] [111B5026] CRC32
18 64,2 [CE10D19C] [ACC7369C] CRC32
19 65,1 [9009578F] [D10C8103] CRC32
20 71,4 [617E4B48] [043E555D] CRC32
21 73,0 [C9EF396E] [0BD20057] CRC32

Thanks to weejee