Subcategories

Ten - Gothica (2017) {Japanese Edition}

Posted By: popsakov
Ten - Gothica (2017) {Japanese Edition}

Ten - Gothica (2017) {Japanese Edition}
EAC Rip | FLAC (Img) + Cue + Log ~ 477 Mb | Full Scans (JPG, 600 dpi) ~ 90 Mb | RAR 5% Recovery
Melodic Hard Rock, AOR | Avalon #MICP-11358

The highly anticipated new album, “Gothica”, from TEN promises to be one of their strongest collection of songs to date. It is full of all the trademark textures and flavours we have come to expect from TEN, arguably one of the best and most consistent melodic hard rock bands in the genre.
“Gothica” renews TEN’s longstanding association with the Frontiers label and proudly displays all the hallmarks of classic TEN albums and will surely continue to build upon the rich legacy that the great British rockers have forged over a career spanning 22 years and counting.
“Gothica” emerges as their darkest album to date. Embracing history, romance and erotic horror in equal measure as it does, the title proves to be a fitting name. As listeners, we are transported from the darker side of human nature to the nocturnal supernatural, a dramatic realm of nightmares and the forbidden. “Gothica” is cinematic in every sense of the word. A web of musically elaborate spells, evoking embers that spark the imagination courtesy of the classic song writing of vocalist Gary Hughes.
Following their success on the recent albums “Albion” and “Isla De Muerta”, Hughes is joined once again by guitarists Dann Rosingana, Steve Grocott and John Halliwell along with bass player Steve McKenna, keyboard maestro Darrel Treece-Birch, and drummer Max Yates. On their third outing as a collective unit, the musicians in TEN have raised the bar even higher than they had previously. The album is full of stunning guitar work over a rich keyboard, bass, and drum tapestry with Hughes’ rich vocals once again bringing the nuances of the intricate lyrics to life.
“Gothica” was produced by Gary Hughes and mixed and mastered by Dennis Ward. TEN’s longstanding professional association with Dennis has been ongoing since he mixed their 2011 album, “Stormwarning”.
Additionally, the album features stunning original artwork by Stan W. Decker, depicting a beautiful enchantress reading incantations from a book whilst summoning shadowy characters from its pages. Stan has cleverly illustrated the piece in order to portray the characters emerging from the books pages as the actual characters from the songs on the album.
Ten - Gothica (2017) {Japanese Edition}


***************

Ten - Gothica (2017) {Japanese Edition}

Track List:

01. The Grail [8:06]
02. Jekyll And Hyde [4:41]
03. Travellers [5:11]
04. A Man For All Seasons [7:01]
05. In My Dreams [5:09]
06. The Wild King Of Winter [6:13]
07. Paragon [4:51]
08. Welcome To The Freak Show [5:36]
09. La Luna Dra-Cu-La [5:31]
10. Into Darkness [5:45]
11. Paragon (bonus mix) [3:38]

Personnel:
Gary Hughes – lead & backing vocals, guitars, bass & programming
Dann Rosingana – guitar
John Halliwell – guitar
Steve Grocott - guitar
Darrel Treece-Birch – keyboards
Steve McKenna – bass guitar
Max Yates – drums and percussion
Karen Fell - additional backing vocals

Exact Audio Copy V1.0 beta 3 from 29. August 2011

EAC extraction logfile from 30. June 2017, 23:27

Ten / Gothica

Used drive : SlimtypeDVD A DS8A5SH Adapter: 0 ID: 0

Read mode : Secure
Utilize accurate stream : Yes
Defeat audio cache : Yes
Make use of C2 pointers : No

Read offset correction : 6
Overread into Lead-In and Lead-Out : No
Fill up missing offset samples with silence : Yes
Delete leading and trailing silent blocks : No
Null samples used in CRC calculations : Yes
Used interface : Installed external ASPI interface

Used output format : User Defined Encoder
Selected bitrate : 320 kBit/s
Quality : High
Add ID3 tag : No
Command line compressor : C:\Program Files (x86)\Exact Audio Copy\Flac\flac.exe
Additional command line options : -V -8 -T "Date=%year%" -T "Genre=%genre%" %source%


TOC of the extracted CD

Track | Start | Length | Start sector | End sector
––––––––––––––––––––––––––––-
1 | 0:00.00 | 8:06.21 | 0 | 36470
2 | 8:06.21 | 4:41.23 | 36471 | 57568
3 | 12:47.44 | 5:11.02 | 57569 | 80895
4 | 17:58.46 | 7:00.50 | 80896 | 112445
5 | 24:59.21 | 5:08.55 | 112446 | 135600
6 | 30:08.01 | 6:13.24 | 135601 | 163599
7 | 36:21.25 | 4:50.63 | 163600 | 185412
8 | 41:12.13 | 5:35.42 | 185413 | 210579
9 | 46:47.55 | 5:31.35 | 210580 | 235439
10 | 52:19.15 | 5:44.56 | 235440 | 261295
11 | 58:03.71 | 3:37.42 | 261296 | 277612


Range status and errors

Selected range

Filename D:\My Music\Ten - 2017 Gothica\Ten - Gothica.wav

Peak level 97.7 %
Extraction speed 4.6 X
Range quality 100.0 %
Test CRC 60EF4BC3
Copy CRC 60EF4BC3
Copy OK

No errors occurred


AccurateRip summary

Track 1 not present in database
Track 2 not present in database
Track 3 not present in database
Track 4 not present in database
Track 5 not present in database
Track 6 not present in database
Track 7 not present in database
Track 8 not present in database
Track 9 not present in database
Track 10 not present in database
Track 11 not present in database

None of the tracks are present in the AccurateRip database

End of status report

==== Log checksum A68E6ECA4F9B6AFEF5A6F3535264680F1EEF4F45B04F947AFA7309CE75111BBA ====

foobar2000 1.2.6 / Dynamic Range Meter 1.1.1
log date: 2017-07-04 00:36:25

––––––––––––––––––––––––––––––––––––––––
Analyzed: Ten / Gothica
––––––––––––––––––––––––––––––––––––––––

DR Peak RMS Duration Track
––––––––––––––––––––––––––––––––––––––––
DR6 -0.20 dB -7.74 dB 8:06 01-The Grail
DR6 -0.20 dB -7.10 dB 4:41 02-Jekyll And Hyde
DR6 -0.20 dB -8.20 dB 5:11 03-Travellers
DR6 -0.20 dB -7.73 dB 7:01 04-A Man For All Seasons
DR6 -0.20 dB -7.16 dB 5:09 05-In My Dreams
DR6 -0.20 dB -7.47 dB 6:13 06-The Wild King Of Winter
DR5 -0.20 dB -7.31 dB 4:51 07-Paragon
DR6 -0.20 dB -7.67 dB 5:36 08-Welcome To The Freak Show
DR5 -0.20 dB -6.15 dB 5:31 09-La Luna Dra-Cu-La
DR6 -0.20 dB -7.72 dB 5:45 10-Into Darkness
DR7 -0.20 dB -9.17 dB 3:38 11-Paragon (bonus mix)
––––––––––––––––––––––––––––––––––––––––

Number of tracks: 11
Official DR value: DR6

Samplerate: 44100 Hz
Channels: 2
Bits per sample: 16
Bitrate: 1029 kbps
Codec: FLAC
================================================================================

[CUETools log; Date: 04.07.2017 0:36:25; Version: 2.1.5]
[CTDB TOCID: 4ev3wG5gLVEqqmUz62CdPZYQa04-] found.
Track | CTDB Status
1 | (4/4) Accurately ripped
2 | (4/4) Accurately ripped
3 | (4/4) Accurately ripped
4 | (4/4) Accurately ripped
5 | (4/4) Accurately ripped
6 | (4/4) Accurately ripped
7 | (4/4) Accurately ripped
8 | (4/4) Accurately ripped
9 | (4/4) Accurately ripped
10 | (4/4) Accurately ripped
11 | (4/4) Accurately ripped
[AccurateRip ID: 001acefd-00e55246-950e750b] disk not present in database.

Track Peak [ CRC32 ] [W/O NULL] [ LOG ]
– 97,7 [60EF4BC3] [9568C776] CRC32
01 97,7 [ABE8A0DF] [B25A6BA2]
02 97,7 [4F4666C6] [80E57CA8]
03 97,7 [929B9F82] [377BD714]
04 97,7 [8B3B304B] [6A34539D]
05 97,7 [B47ED2EA] [2A457162]
06 97,7 [6A3AB6B4] [7CBB5421]
07 97,7 [9F50B2FE] [FEB1FBAD]
08 97,7 [BDAA6158] [C9528C5E]
09 97,7 [8E4C9E87] [7D522A04]
10 97,7 [56F708E0] [D4CD49E6]
11 97,7 [0EC1B937] [B43D1526]

Ten - Gothica (2017) {Japanese Edition}

See also:
Ten - Albums Collection (1996-2011) [Japanese Editions]

All thanks go to kolushew

>>> My Blog <<<

Download from icerbox.com: