Subcategories

Ten Years After - A Space In Time (1971) [Chrysalis, F2 21001]

Posted By: v3122
Ten Years After - A Space In Time (1971) [Chrysalis, F2 21001]

Ten Years After - A Space In Time (1971)
EAC | Flac(Image) + Cue + Log & MP3 CBR 320Kbps
Chrysalis, F2 21001/DIDX 1415 | ~ 214 or 88 Mb | Scans
Rock / Blues Rock

A Space in Time was Ten Years After's best-selling album. This was due primarily to the strength of "I'd Love to Change the World," the band's only hit single, and one of the most ubiquitous AM and FM radio cuts of the summer of 1971. TYA's first album for Columbia, A Space in Time has more of a pop-oriented feel than any of their previous releases had. The individual cuts are shorter, and Alvin Lee displays a broader instrumental palette than before. In fact, six of the disc's ten songs are built around acoustic guitar riffs. However, there are still a couple of barn-burning jams. The leadoff track, "One of These Days," is a particularly scorching workout, featuring extended harmonica and guitar solos. After the opener, however, the album settles back into a more relaxed mood than one would have expected from Ten Years After. Many of the cuts make effective use of dynamic shifts, and the guitar solos are generally more understated than on previous outings. The production on A Space in Time is crisp and clean, a sound quite different from the denseness of its predecessors. Though not as consistent as Cricklewood Green, A Space in Time has its share of sparkling moments.

by Jim Newsom, AMG
Ten Years After - A Space In Time (1971) [Chrysalis, F2 21001]


Ten Years After - A Space In Time (1971):

Ten Years After - A Space In Time (1971) [Chrysalis, F2 21001]

Tracklist:

01. One Of These Days 05:50
02. Here They Come 04:36
03. I'd Love To Change The World 03:44
04. Over The Hill 02:28
05. Baby Won't You Let Me Rock 'N' Roll You 02:16
06. Once There Was A Time 03:22
07. Let The Sky Fall 04:19
08. Hard Monkey's 03:10
09. I've Been There Too 05:44
10. Uncle Jam (C.Churchill, A.Lee, R.Lee, L.Lyons) 01:57

All songs by Alvin Lee, except where noted.

Musicians:

Alvin Lee – guitar and vocals
Leo Lyons – bass
Ric Lee – drums
Chick Churchill – keyboards


Exact Audio Copy V1.0 beta 4 from 7. December 2014

EAC extraction logfile from 12. February 2016, 20:51

Ten Years After / A Space In Time (1994, F2 21001, DIDX 1415)

Used drive : ATAPI iHAS124 B Adapter: 1 ID: 0

Read mode : Secure
Utilize accurate stream : Yes
Defeat audio cache : Yes
Make use of C2 pointers : No

Read offset correction : 6
Overread into Lead-In and Lead-Out : No
Fill up missing offset samples with silence : Yes
Delete leading and trailing silent blocks : No
Null samples used in CRC calculations : Yes
Used interface : Installed external ASPI interface

Used output format : User Defined Encoder
Selected bitrate : 128 kBit/s
Quality : High
Add ID3 tag : Yes
Command line compressor : C:\Program Files (x86)\Exact Audio Copy\Flac\flac.exe
Additional command line options : -V -8 -T "Date=%year%" -T "Genre=%genre%" %source%


TOC of the extracted CD

Track | Start | Length | Start sector | End sector
––––––––––––––––––––––––––––-
1 | 0:00.00 | 5:50.25 | 0 | 26274
2 | 5:50.25 | 4:36.60 | 26275 | 47034
3 | 10:27.10 | 3:44.12 | 47035 | 63846
4 | 14:11.22 | 2:28.03 | 63847 | 74949
5 | 16:39.25 | 2:16.15 | 74950 | 85164
6 | 18:55.40 | 3:22.55 | 85165 | 100369
7 | 22:18.20 | 4:19.50 | 100370 | 119844
8 | 26:37.70 | 3:10.57 | 119845 | 134151
9 | 29:48.52 | 5:44.63 | 134152 | 160014
10 | 35:33.40 | 1:57.50 | 160015 | 168839


Range status and errors

Selected range

Filename G:\CD\Ten Years After - A Space In Time.wav

Peak level 84.4 %
Extraction speed 7.7 X
Range quality 100.0 %
Test CRC 040E1A4B
Copy CRC 040E1A4B
Copy OK

No errors occurred


AccurateRip summary

Track 1 accurately ripped (confidence 28) [B5D7E9B9] (AR v2)
Track 2 accurately ripped (confidence 26) [7831D726] (AR v2)
Track 3 accurately ripped (confidence 27) [AFA129E3] (AR v2)
Track 4 accurately ripped (confidence 28) [C1098FF2] (AR v2)
Track 5 accurately ripped (confidence 28) [0E93637E] (AR v2)
Track 6 accurately ripped (confidence 28) [79B43AEE] (AR v2)
Track 7 accurately ripped (confidence 28) [F0F53286] (AR v2)
Track 8 accurately ripped (confidence 28) [0D0263DD] (AR v2)
Track 9 accurately ripped (confidence 25) [9E596048] (AR v2)
Track 10 accurately ripped (confidence 27) [986FCB39] (AR v2)

All tracks accurately ripped

End of status report

–– CUETools DB Plugin V2.1.4

[CTDB TOCID: fRCFrhTdsXjpyZwDLw62lrjRvuM-] found
Submit result: fRCFrhTdsXjpyZwDLw62lrjRvuM- has been confirmed
Track | CTDB Status
1 | (95/97) Accurately ripped
2 | (96/97) Accurately ripped
3 | (96/97) Accurately ripped
4 | (97/97) Accurately ripped
5 | (96/97) Accurately ripped
6 | (97/97) Accurately ripped
7 | (96/97) Accurately ripped
8 | (97/97) Accurately ripped
9 | (95/97) Accurately ripped
10 | (96/97) Accurately ripped


==== Log checksum 876096137A8C4728629281F01243900379BBDC507E6D775CB64A1CA94300C5A3 ====


foobar2000 1.2.9 / Dynamic Range Meter 1.1.1
log date: 2015-08-20 10:53:47

––––––––––––––––––––––––––––––––––––––––
Analyzed: Ten Years After / A Space In Time (F2 21001)
––––––––––––––––––––––––––––––––––––––––

DR Peak RMS Duration Track
––––––––––––––––––––––––––––––––––––––––
DR12 -1.87 dB -15.95 dB 5:50 01-One Of These Days
DR11 -4.42 dB -19.37 dB 4:37 02-Here They Come
DR11 -4.05 dB -18.59 dB 3:44 03-I'd Love To Change The World
DR12 -2.71 dB -17.61 dB 2:28 04-Over The Hill
DR11 -3.69 dB -16.09 dB 2:16 05-Baby Won't You Let Me Rock 'N' Roll You
DR12 -3.82 dB -18.41 dB 3:23 06-Once There Was A Time
DR14 -1.99 dB -19.05 dB 4:20 07-Let The Sky Fall
DR12 -2.33 dB -17.07 dB 3:11 08-Hard Monkey's
DR12 -1.47 dB -17.01 dB 5:45 09-I've Been There Too
DR12 -3.33 dB -19.77 dB 1:58 10-Uncle Jam
––––––––––––––––––––––––––––––––––––––––

Number of tracks: 10
Official DR value: DR12

Samplerate: 44100 Hz
Channels: 2
Bits per sample: 16
Bitrate: 773 kbps
Codec: FLAC

[CUETools log; Date: 18.08.2015 23:52:29; Version: 2.1.4]
[CTDB TOCID: fRCFrhTdsXjpyZwDLw62lrjRvuM-] found.
Track | CTDB Status
1 | (71/73) Accurately ripped
2 | (72/73) Accurately ripped
3 | (72/73) Accurately ripped
4 | (73/73) Accurately ripped
5 | (72/73) Accurately ripped
6 | (73/73) Accurately ripped
7 | (72/73) Accurately ripped
8 | (73/73) Accurately ripped
9 | (71/73) Accurately ripped
10 | (72/73) Accurately ripped
[AccurateRip ID: 000ef60e-0074e55c-7708cb0a] found.
Track [ CRC | V2 ] Status
01 [fa201e9a|3bf7bf67] (014+017/182) Accurately ripped
02 [787ab45d|c518b2e1] (014+017/187) Accurately ripped
03 [d2ad508b|dc5d408e] (014+017/192) Accurately ripped
04 [35360333|85b40be2] (013+017/192) Accurately ripped
05 [f7790bee|1794a5d1] (014+017/192) Accurately ripped
06 [8c05df51|17d4b03a] (013+017/188) Accurately ripped
07 [5623c948|75daa30d] (014+017/190) Accurately ripped
08 [3ef5da78|92378613] (013+017/190) Accurately ripped
09 [80fa7c23|d6557963] (013+017/186) Accurately ripped
10 [94366278|083a2eeb] (013+017/187) Accurately ripped
Offsetted by -2115:
01 [b5a112e9] (013/182) Accurately ripped
02 [d0e41d0b] (013/187) Accurately ripped
03 [4d34fbd5] (014/192) Accurately ripped
04 [578560f3] (013/192) Accurately ripped
05 [36a37285] (013/192) Accurately ripped
06 [43872d03] (013/188) Accurately ripped
07 [5f3963b4] (013/190) Accurately ripped
08 [f6ec4253] (013/190) Accurately ripped
09 [350bbcb1] (012/186) Accurately ripped
10 [a2a2e481] (013/187) Accurately ripped
Offsetted by -2112:
01 [90fa732a] (003/182) Accurately ripped
02 [a6493860] (003/187) Accurately ripped
03 [f536c3c0] (003/192) Accurately ripped
04 [6cfd3771] (003/192) Accurately ripped
05 [f271739a] (003/192) Accurately ripped
06 [9a9aec1a] (003/188) Accurately ripped
07 [706da5f0] (003/190) Accurately ripped
08 [b2d94b95] (003/190) Accurately ripped
09 [690180ea] (003/186) Accurately ripped
10 [45b8e276] (003/187) Accurately ripped
Offsetted by -1448:
01 [52cfc3ad] (027/182) Accurately ripped
02 [391507b7] (029/187) Accurately ripped
03 [36c6e52a] (031/192) Accurately ripped
04 [749ed5bc] (032/192) Accurately ripped
05 [3ac70e52] (032/192) Accurately ripped
06 [1c67380d] (029/188) Accurately ripped
07 [536c843e] (030/190) Accurately ripped
08 [487c9826] (031/190) Accurately ripped
09 [c8f4d0f9] (031/186) Accurately ripped
10 [29887870] (030/187) Accurately ripped
Offsetted by 90:
01 [4daf1c30] (024/182) Accurately ripped
02 [558b0b6c] (023/187) Accurately ripped
03 [a00a3538] (024/192) Accurately ripped
04 [e1838ddb] (024/192) Accurately ripped
05 [aac0583b] (024/192) Accurately ripped
06 [dfffb1c2] (024/188) Accurately ripped
07 [2db8192f] (023/190) Accurately ripped
08 [3eef409b] (023/190) Accurately ripped
09 [22a7f768] (023/186) Accurately ripped
10 [b0af8816] (023/187) Accurately ripped
Offsetted by 107:
01 [a7fd0fd7] (008/182) Accurately ripped
02 [472c251d] (010/187) Accurately ripped
03 [b7d4fb62] (010/192) Accurately ripped
04 [86f83f8b] (010/192) Accurately ripped
05 [a56dff14] (009/192) Accurately ripped
06 [943fc935] (009/188) Accurately ripped
07 [bcaacc13] (010/190) Accurately ripped
08 [25cc110b] (010/190) Accurately ripped
09 [8f51421e] (010/186) Accurately ripped
10 [9441b9c0] (009/187) Accurately ripped
Offsetted by -2779:
01 [162a40f9] (000/182) No match (V2 was not tested)
02 [f9e81506] (000/187) No match (V2 was not tested)
03 [1b94ff2a] (000/192) No match (V2 was not tested)
04 [2b14a743] (000/192) No match (V2 was not tested)
05 [6b4dc7c0] (000/192) No match (V2 was not tested)
06 [ba2976e4] (000/188) No match (V2 was not tested)
07 [f094df16] (000/190) No match (V2 was not tested)
08 [cc9e7604] (000/190) No match (V2 was not tested)
09 [504c3dfe] (000/186) No match (V2 was not tested)
10 [91c9c9d1] (000/187) No match (V2 was not tested)
Offsetted by -1717:
01 [9fd158ee] (000/182) No match (V2 was not tested)
02 [9d5bd6f4] (000/187) No match (V2 was not tested)
03 [d53e8b65] (000/192) No match (V2 was not tested)
04 [5e149d60] (000/192) No match (V2 was not tested)
05 [b7c5981f] (000/192) No match (V2 was not tested)
06 [0701addc] (000/188) No match (V2 was not tested)
07 [a1e15ef2] (000/190) No match (V2 was not tested)
08 [714215e9] (000/190) No match (V2 was not tested)
09 [5c360977] (000/186) No match (V2 was not tested)
10 [c25a8330] (000/187) No match (V2 was not tested)
Offsetted by -154:
01 [5244ca36] (000/182) No match (V2 was not tested)
02 [dc220331] (000/187) No match (V2 was not tested)
03 [217060ab] (000/192) No match (V2 was not tested)
04 [b30293c6] (000/192) No match (V2 was not tested)
05 [1aa2194f] (000/192) No match (V2 was not tested)
06 [f1432550] (000/188) No match (V2 was not tested)
07 [7b508211] (000/190) No match (V2 was not tested)
08 [73781197] (000/190) No match (V2 was not tested)
09 [29874c02] (000/186) No match (V2 was not tested)
10 [45dee9a1] (000/187) No match (V2 was not tested)

Track Peak [ CRC32 ] [W/O NULL] [ LOG ]
– 84,4 [110E8418] [98ACA23D] CRC32
01 80,6 [82ECE6CE] [D55CFCD7]
02 60,1 [003CDC27] [63047560]
03 62,7 [479FDC6D] [C8720235]
04 73,1 [D7D7D57B] [498460DE]
05 65,3 [39F66217] [63969EC1]
06 64,4 [DB2ACFB3] [C9F1DFF0]
07 79,5 [C39F91BF] [87ADDE31]
08 76,4 [2238C3EE] [6FB2D3AD]
09 84,4 [89D0146E] [18B238C8]
10 68,1 [D27E335F] [A8999D25]

Ten Years After - A Space In Time (1971) [Chrysalis, F2 21001]

All thanks go to Ready.zp

Ten Years After in my Blog

Download Ten Years After - A Space In Time (1971):