Subcategories

Ten Years After - Goin' Home (1975)

Posted By: v3122
Ten Years After - Goin' Home (1975)

Ten Years After - Goin' Home (1975)
EAC | Flac(Image) + Cue + Log & MP3 CBR 320Kbps
1991 | Chrysalis, CDP 1C 538-3 21077 2 | ~ 280 or 116 Mb | Scans
Blues Rock / Hard Rock | Compilation

I suppose we start off listing to many a band through the compilation album, and during those formative years we can get the impression that these compiled songs are the best that a certain band has to offer, but perhaps they may just be the most popular songs, more often than not they just become singles collections. Looking back it may seem like they are the best songs. Bands like Ten Years After fixed enough filler onto their studio albums which would make a compilation a better listening experience. Of course it's subjective when it comes to bad songs and good songs, but hey, filler is filler in anyones book. When Ten Years After were good they were indeed very good. Strong lyrics, vibrant passages and fantastic guitar playing from Lee, but yes, they were often so very dull. It was not until Crickwood Green that the band formed any sort of consistency with regards to songwritng on their albums. Stonedhenge was good and at the same time brutal. A rushed album with some good songs but the entire album is frustrating and often annoying to listen to. Goin' Home just takes some of the bands more popular songs and some of the better moments from their studio outings. It's a rampant album that cuts away the bullshit filler which plagued many a TYA album. "Hear Me Calling" has all the sultry rock vibes that say "Skoobly-"Oobly-Doobob" doesn't. "Going to Try" quickly carries the momentum from the opening track and the album carries this strong run through the excellent "No Title", the entertaining "Woodchoppers Ball" and the constant TYA favorite, and the song Alvin Lee eventually hated playing, "I'm Going Home". And who could have blamed him for hating performing it? Yes, "I'm Going Home" is all guitar histrionics and all that, but there certainly was more to this band than a jaunt through some guitar noodleing, the good songs are indeed here, but maybe the filler distracted many to the good shit. This album is not complete by any means, it only contains seven tracks, (though "I'm Going" Home rants on for over eleven and a half minutes). I could have done withot "Love Like a Man" if "50,000 Miles Beneath My Brain" or "Working On The Road" might have been included, but then that's the way of the compilation album. There are more than enough Ten Years After comps doing the rounds, and they come quite cheap too, but Goin Home remains one of the better ones.

by jonnydeluxe, rateyourmusic
Ten Years After - Goin' Home (1975):

Ten Years After - Goin' Home (1975)

Tracklist:

01. Hear Me Calling - 5:44
02. Going to Try - 4:38
03. Love Like a Man - 3:08
04. No Title - 8:14
05. I Woke Up This Morning - 5:32
06. Woodchoppers Ball - 7:53
07. I'm Going Home - 9:32

Exact Audio Copy V1.0 beta 4 from 7. December 2014

EAC extraction logfile from 26. January 2015, 23:47

Ten Years After / Goin' Home (1991, CDP 1C 538-3 21077 2)

Used drive : ATAPI iHAS124 B Adapter: 1 ID: 0

Read mode : Secure
Utilize accurate stream : Yes
Defeat audio cache : Yes
Make use of C2 pointers : No

Read offset correction : 6
Overread into Lead-In and Lead-Out : No
Fill up missing offset samples with silence : Yes
Delete leading and trailing silent blocks : No
Null samples used in CRC calculations : Yes
Used interface : Installed external ASPI interface

Used output format : User Defined Encoder
Selected bitrate : 128 kBit/s
Quality : High
Add ID3 tag : Yes
Command line compressor : C:\Program Files (x86)\Exact Audio Copy\Flac\flac.exe
Additional command line options : -V -8 -T "Date=%year%" -T "Genre=%genre%" %source%


TOC of the extracted CD

Track | Start | Length | Start sector | End sector
––––––––––––––––––––––––––––-
1 | 0:00.00 | 5:43.62 | 0 | 25786
2 | 5:43.62 | 4:38.00 | 25787 | 46636
3 | 10:21.62 | 3:07.70 | 46637 | 60731
4 | 13:29.57 | 8:13.53 | 60732 | 97759
5 | 21:43.35 | 5:31.70 | 97760 | 122654
6 | 27:15.30 | 7:53.10 | 122655 | 158139
7 | 35:08.40 | 9:31.50 | 158140 | 201014


Range status and errors

Selected range

Filename G:\CD\Ten Years After - Goin' Home.wav

Peak level 93.5 %
Extraction speed 5.4 X
Range quality 100.0 %
Test CRC A9492F9E
Copy CRC A9492F9E
Copy OK

No errors occurred


AccurateRip summary

Track 1 cannot be verified as accurate (confidence 7) [6670A36C], AccurateRip returned [33C31716] (AR v2)
Track 2 cannot be verified as accurate (confidence 7) [425AF9E7], AccurateRip returned [EADFB175] (AR v2)
Track 3 cannot be verified as accurate (confidence 7) [4AC1B35D], AccurateRip returned [948B02A9] (AR v2)
Track 4 cannot be verified as accurate (confidence 7) [2A5C0C89], AccurateRip returned [DDEF7D9C] (AR v2)
Track 5 cannot be verified as accurate (confidence 7) [273CA9D3], AccurateRip returned [86FF24A7] (AR v2)
Track 6 cannot be verified as accurate (confidence 7) [311F9F44], AccurateRip returned [DD926A85] (AR v2)
Track 7 cannot be verified as accurate (confidence 6) [C220DAA8], AccurateRip returned [0C307297] (AR v2)

No tracks could be verified as accurate
You may have a different pressing from the one(s) in the database

End of status report

–– CUETools DB Plugin V2.1.4

[CTDB TOCID: X7no8bPF4ERF.cq43ZtGQsllvKE-] found
Submit result: X7no8bPF4ERF.cq43ZtGQsllvKE- has been confirmed
Track | CTDB Status
1 | (2/2) Accurately ripped
2 | (2/2) Accurately ripped
3 | (2/2) Accurately ripped
4 | (2/2) Accurately ripped
5 | (2/2) Accurately ripped
6 | (2/2) Accurately ripped
7 | (2/2) Accurately ripped


==== Log checksum 0B0E920C253932896995D6E233BE2BF4EF10C9FA3D7F57A8FEB5F4DE1D88909A ====

foobar2000 1.2.9 / Dynamic Range Meter 1.1.1
log date: 2015-01-29 23:27:00

––––––––––––––––––––––––––––––––––––––––
Analyzed: Ten Years After / Goin' Home (1991, CDP 1C 538-3 21077 2)
––––––––––––––––––––––––––––––––––––––––

DR Peak RMS Duration Track
––––––––––––––––––––––––––––––––––––––––
DR12 -1.82 dB -16.05 dB 5:44 01-Hear Me Calling
DR12 -1.39 dB -16.55 dB 4:38 02-Going to Try
DR11 -0.68 dB -13.78 dB 3:08 03-Love Like a Man
DR12 -1.45 dB -18.29 dB 8:14 04-No Title
DR11 -1.78 dB -13.94 dB 5:32 05-I Woke Up This Morning
DR10 -0.58 dB -12.22 dB 7:53 06-Woodchoppers Ball
DR11 -1.13 dB -14.00 dB 9:32 07-I'm Going Home
––––––––––––––––––––––––––––––––––––––––

Number of tracks: 7
Official DR value: DR11

Samplerate: 44100 Hz
Channels: 2
Bits per sample: 16
Bitrate: 819 kbps
Codec: FLAC

[CUETools log; Date: 30.01.2015 9:45:04; Version: 2.1.4]
[CTDB TOCID: X7no8bPF4ERF.cq43ZtGQsllvKE-] found.
Track | CTDB Status
1 | (3/3) Accurately ripped
2 | (3/3) Accurately ripped
3 | (3/3) Accurately ripped
4 | (3/3) Accurately ripped
5 | (3/3) Accurately ripped
6 | (3/3) Accurately ripped
7 | (3/3) Accurately ripped
[AccurateRip ID: 000ae016-0042bee4-410a7807] found.
Track [ CRC | V2 ] Status
01 [793e72ec|6670a36c] (00+00/10) No match
02 [57acca27|425af9e7] (00+00/11) No match
03 [9cfc9115|4ac1b35d] (00+00/11) No match
04 [5f2ff210|2a5c0c89] (00+00/11) No match
05 [1e8c8eb4|273ca9d3] (00+00/11) No match
06 [f47d49de|311f9f44] (00+00/11) No match
07 [00154f17|c220daa8] (00+00/10) No match
Offsetted by 86:
01 [57e1a2c4] (03/10) Accurately ripped
02 [ecb96e19] (04/11) Accurately ripped
03 [d10d5baf] (04/11) Accurately ripped
04 [e5148721] (04/11) Accurately ripped
05 [8ccabab9] (04/11) Accurately ripped
06 [a680c0df] (04/11) Accurately ripped
07 [8a1b1578] (04/10) Accurately ripped

Track Peak [ CRC32 ] [W/O NULL] [ LOG ]
– 93,5 [A9492F9E] [488F1FB8] CRC32
01 81,0 [1426E3C1] [B0339185]
02 85,2 [53996421] [B650ECDC]
03 92,4 [DAE04B99] [D32A64A1]
04 84,6 [A1CF2880] [3DB04FB6]
05 81,5 [ADE8B5B8] [73EBDD9E]
06 93,5 [C622A21F] [FBEFCFDC]
07 87,8 [1963E261] [6B61D2D1]

Ten Years After - Goin' Home (1975)

All thanks go to gerrV