Tags
Language
Tags

Ten Years After - Live At The Fillmore East (1970) Re-up

Posted By: v3122
Ten Years After - Live At The Fillmore East (1970) Re-up

Ten Years After - Live At The Fillmore East (1970)
2CD | Hard Rock/Blues-Rock | EAC Rip | Flac (Image) + Cue + Log | 6 + 6 Tracks
Covers -> 25 Mb | Chrysalis | 7243 533297 2 3 | Released: 2001 | ~730 Mb

This superbly recorded double disc (the original engineer was Eddie Kramer, best-known for his work with Hendrix) captured over a weekend worth of dates in February 1970 at the venerable New York City venue catches the Brit boogie quartet at the peak of their powers. These shows were sandwiched between their triumphant Woodstock set and the release of Cricklewood Green, generally considered the band's best work. They find the group primed through years of roadwork, as well as obviously excited to be playing in front of an appreciative N.Y.C. crowd. Kicking off with one of Bill Graham's patented individual-member intros, the group winds their way through the ominous riff of "Love Like a Man." Mixing extended and rocking versions of blues standards – like Sonny Boy Williamson classics "Help Me" and "Good Morning Little Schoolgirl," as well as Willie Dixon's "Spoonful" – with two Chuck Berry covers and some nuggets from their own catalog, Ten Years After burns through this show with enormous energy and infectious enthusiasm. Alvin Lee and his flying fingers stay firmly in the spotlight, but the remastered sound is so immaculate you can finally appreciate the contributions of the other, generally overlooked TYA members: Chick Churchill on keyboards and especially Leo Lyons' fluid bass work, along with Ric Lee's jazzy drums. The songs shift into overdrive on the jams – the longest of which pushes "I Can't Keep From Crying Sometimes" to 20 minutes – and amazingly stay interesting for the majority of that time thanks to Lee's sense of flashy dynamics, as he quotes liberally from Hendrix and Cream licks. Detailed liner notes from drummer Lee describe the scene, not only in terms of Ten Years After, but also of the musical camaraderie of the time. Some of this is almost embarrassingly dated – the drum solo-laden "The Hobbit" is particularly guilty, as are the often-interminable guitar gymnastics – and the Chuck Berry numbers might have been live crowd-pleasers but don't add much to the originals. Still, this is the best Ten Years After concert album (of the three in the catalog), and proves just how vibrant these boogie boys could be when inspired by the crowd and each other on a perfect night.

~ Hal Horowitz, All Music Guide
Ten Years After - Live At The Fillmore East (1970) Re-up

Ten Years After:

Formed: 1967, Nottingham, England
Genres: Rock
Representative Albums: "Cricklewood Green", "Essential", "Universal"
Representative Songs: "I'd Love to Change the World", "I'm Going Home", "Love Like a Man"

Biography:

Ten Years After is a British blues-rock quartet consisting of Alvin Lee (born December 19, 1944), guitar and vocals; Chick Churchill (born January 2, 1949), keyboards; Leo Lyons (born November 30, 1944) bass; and Ric Lee (born October 20, 1945), drums. The group was formed in 1967 and signed to Decca in England. Their first album was not a success, but their second, the live Undead (1968) containing "I'm Going Home," a six-minute blues workout by the fleet-fingered Alvin, hit the charts on both sides of the Atlantic. Stonedhenge (1969) hit the U.K. Top Ten in early 1969. Ten Years After's U.S. breakthrough came as a result of their appearance at Woodstock, at which they played a nine-minute version of "I'm Going Home." Their next album, Ssssh, reached the U.S. Top 20, and Cricklewood Green, containing the hit single "Love Like a Man," reached number four. Watt completed the group's Decca contract, after which they signed with Columbia and moved in a more mainstream pop direction, typified by the gold-selling 1971 album A Space in Time and its Top 40 single "I'd Love to Change the World." Subsequent efforts in that direction were less successful, however, and Ten Years After split up after the release of Positive Vibrations in 1974. They reunited in 1988 for concerts in Europe and recorded their first new album in 15 years, About Time, in 1989 before disbanding once again. In 2001, Ric Lee was preparing the back catalog for rerelease when he discoverd the Live at the Fillmore East 1970 tapes. He approached Alvin about getting back together to promote the lost album, but Alvin Lee declined. The rest of the band was up for it, though, and together with guitarist Joe Gooch, Ten Years After started touring again. In addition to touring the world, this new incarnation recorded their first new material in about a decade and a half and released Now in 2004 and added the live double CD set Roadworks in 2005.

~ William Ruhlmann, All Music Guide
Ten Years After - Live At The Fillmore East (1970) - CD1:

Ten Years After - Live At The Fillmore East (1970) Re-up

Tracklist:

1. Love Like A Man (Live) 9:35
2. Good Morning Little Schoolgirl (Live) 7:26
3. Working On The Road (Live) 3:34
4. The Hobbit (Live) 10:52
5. 50,000 Miles Beneath My Brain (Live) 9:58
6. Skoobly-Oobly-Doobob/I Can't Keep From Crying Sometimes/Extension On One Chord (Medley) (Live) 19:30

Exact Audio Copy V0.99 prebeta 3 from 28. July 2007

Отчёт EAC об извлечении, выполненном 21. мая 2008, 21:02

Ten Years After / Live At The Fillmore East (Disc-1)

Дисковод: TOSHIBA DVD-ROM SD-M1712 Adapter: 0 ID: 3

Режим чтения : Достоверность
Использование точного потока : Да
Отключение кэша аудио : Да
Использование указателей C2 : Нет

Коррекция смещения при чтении : -472
Способность читать области Lead-in и Lead-out : Нет
Заполнение пропущенных сэмплов тишиной : Да
Удаление блоков с тишиной в начале и конце : Нет
При вычислениях CRC использовались нулевые сэмплы : Да
Интерфейс : Установленный внешний ASPI-интерфейс

Выходной формат : Пользовательский кодировщик
Выбранный битрейт : 768 kBit/s
Качество : Высокий
Добавление ID3-тэга : Нет
Утилита сжатия : C:\Program Files\Exact Audio Copy\FLAC\FLAC.EXE
Дополнительные параметры : -6 -V -T "ARTIST=%a" -T "TITLE=%t" -T "ALBUM=%g" -T "DATE=%y" -T "TRACKNUMBER=%n" -T "GENRE=%m" -T "COMMENT=%e" %s -o %d


TOC извлечённого CD

Трек | Старт | Длительность | Начальный сектор | Конечный сектор
––––––––––––––––––––––––––––––––––-
1 | 0:00.00 | 9:35.50 | 0 | 43174
2 | 9:35.50 | 7:26.47 | 43175 | 76671
3 | 17:02.22 | 3:34.70 | 76672 | 92791
4 | 20:37.17 | 10:52.68 | 92792 | 141759
5 | 31:30.10 | 9:58.27 | 141760 | 186636
6 | 41:28.37 | 19:30.70 | 186637 | 274456


Характеристики диапазона извлечения и сообщения об ошибках

Выбранный диапазон

Имя файла G:\My Docs 2\My Music 2\_Svetlov_D\Ten Years After - Live At The Fillmore East\Ten Years After - Live At The Fillmore East (Disc-1)\Ten Years After - Live At The Fillmore East (Disc-1).wav

Пиковый уровень 99.6 %
Качество диапазона 99.9 %
CRC копии 28D1ABE9
Копирование… OK

Ошибок не произошло

Конец отчёта

AUDIOCHECKER v2.0 beta (build 457) - by Dester - opdester@freemail.hu
~~~~~~~~~~~~~~~~~~~~~~~~~~~~~~~~~~
-=== DO NOT EDIT THIS FILE! ===-

Path: …\Ten Years After - Live At The Fillmore East (Disc-1)

01 -=- Ten Years After - Live At The Fillmore East (Disc-1).flac -=- CDDA (100%)

224924948

Ten Years After - Live At The Fillmore East (1970) - CD2:

Ten Years After - Live At 			  		  		  	 			   		  	   		  		  		 		   	 			   		  	   		  		  		  	   	 			   			  	  			  				 The Fillmore East (1970) Re-up

Tracklist:

1. Help Me (Live) 16:06
2. I'm Going Home (Live At Filmore East) 11:58
3. Sweet Little Sixteen (Live) 4:38
4. Roll Over Beethoven (Live) 4:44
5. I Woke Up This Morning (Live) 8:09
6. Spoonful (Live) 8:01

Exact Audio Copy V0.99 prebeta 3 from 28. July 2007

Отчёт EAC об извлечении, выполненном 21. мая 2008, 22:39

Ten Years After / Live At The Fillmore East (Disc-2)

Дисковод: TOSHIBA DVD-ROM SD-M1712 Adapter: 0 ID: 3

Режим чтения : Достоверность
Использование точного потока : Да
Отключение кэша аудио : Да
Использование указателей C2 : Нет

Коррекция смещения при чтении : -472
Способность читать области Lead-in и Lead-out : Нет
Заполнение пропущенных сэмплов тишиной : Да
Удаление блоков с тишиной в начале и конце : Нет
При вычислениях CRC использовались нулевые сэмплы : Да
Интерфейс : Установленный внешний ASPI-интерфейс

Выходной формат : Пользовательский кодировщик
Выбранный битрейт : 768 kBit/s
Качество : Высокий
Добавление ID3-тэга : Нет
Утилита сжатия : C:\Program Files\Exact Audio Copy\FLAC\FLAC.EXE
Дополнительные параметры : -6 -V -T "ARTIST=%a" -T "TITLE=%t" -T "ALBUM=%g" -T "DATE=%y" -T "TRACKNUMBER=%n" -T "GENRE=%m" -T "COMMENT=%e" %s -o %d


TOC извлечённого CD

Трек | Старт | Длительность | Начальный сектор | Конечный сектор
––––––––––––––––––––––––––––––––––-
1 | 0:00.00 | 16:06.37 | 0 | 72486
2 | 16:06.37 | 11:57.73 | 72487 | 126334
3 | 28:04.35 | 4:38.45 | 126335 | 147229
4 | 32:43.05 | 4:44.15 | 147230 | 168544
5 | 37:27.20 | 8:09.35 | 168545 | 205254
6 | 45:36.55 | 8:01.12 | 205255 | 241341


Характеристики диапазона извлечения и сообщения об ошибках

Выбранный диапазон

Имя файла G:\My Docs 2\My Music 2\_Svetlov_D\Ten Years After - Live At The Fillmore East\Ten Years After - Live At The Fillmore East (Disc-2)\Ten Years After - Live At The Fillmore East (Disc-2).wav

Пиковый уровень 97.3 %
Качество диапазона 100.0 %
CRC копии 4A66376A
Копирование… OK

Ошибок не произошло

Конец отчёта

AUDIOCHECKER v2.0 beta (build 457) - by Dester - opdester@freemail.hu
~~~~~~~~~~~~~~~~~~~~~~~~~~~~~~~~~~
-=== DO NOT EDIT THIS FILE! ===-

Path: …\Ten Years After - Live At The Fillmore East (Disc-2)

01 -=- Ten Years After - Live At The Fillmore East (Disc-2).flac -=- CDDA (100%)

223679764


Download Ten Years After - Live At The Fillmore East (1970):