Subcategories

Ten Years After - Watt (1970)

Posted By: v3122
Ten Years After - Watt (1970)

Ten Years After - Watt (1970)
EAC | Flac(Image) + Cue + Log & MP3 CBR 320Kbps
Chrysalis, F2 21085 [DIDX 2940] | USA | ~ 266 or 112 Mb | Scans(png) -> 104 Mb
Classic Rock / Blues Rock

Watt had many of the same ingredients as its predecessor, Cricklewood Green, but wasn't nearly as well thought out. The band had obviously spent much time on the road, leaving little time for developing new material. Consequently, a cover of Chuck Berry's "Sweet Little Sixteen," recorded live at the Isle of Wight Festival, is included here, as is a short instrumental with the uninspired title "The Band with No Name." Other song titles like "I Say Yeah" and "My Baby Left Me" betray the lack of spark in Alvin Lee's songwriting. Nonetheless, his guitar work is fast and clean (though the licks are beginning to sound repetitive from album to album), and the band continues to cook in the manner exemplified best on Cricklewood Green.

by Jim Newsom, AMG
Ten Years After - Watt (1970)


Ten Years After - Watt (1970):

Ten Years After - Watt (1970)

Tracklist:

01. I'm Coming On 03:49
02. My Baby Left Me 05:24
03. Think About The Times 04:45
04. I Say Yeah 05:17
05. The Band With No Name 01:39
06. Gonna Run 06:04
07. She Lies In The Morning 07:27
08. Sweet Little Sixteen (Chuck Berry) 04:10

All songs written by Alvin Lee, unless otherwise noted.

Exact Audio Copy V1.0 beta 3 from 29. August 2011

EAC extraction logfile from 22. February 2016, 10:35

Ten Years After / Watt (F2 21085)

Used drive : HL-DT-STDVD-RAM GSA-H22L Adapter: 4 ID: 4

Read mode : Secure
Utilize accurate stream : Yes
Defeat audio cache : Yes
Make use of C2 pointers : No

Read offset correction : 102
Overread into Lead-In and Lead-Out : No
Fill up missing offset samples with silence : Yes
Delete leading and trailing silent blocks : No
Null samples used in CRC calculations : Yes
Used interface : Native Win32 interface for Win NT & 2000

Used output format : Internal WAV Routines
Sample format : 44.100 Hz; 16 Bit; Stereo


TOC of the extracted CD

Track | Start | Length | Start sector | End sector
––––––––––––––––––––––––––––-
1 | 0:00.00 | 3:49.25 | 0 | 17199
2 | 3:49.25 | 5:24.67 | 17200 | 41566
3 | 9:14.17 | 4:45.63 | 41567 | 63004
4 | 14:00.05 | 5:17.50 | 63005 | 86829
5 | 19:17.55 | 1:39.10 | 86830 | 94264
6 | 20:56.65 | 6:04.30 | 94265 | 121594
7 | 27:01.20 | 7:27.27 | 121595 | 155146
8 | 34:28.47 | 4:10.60 | 155147 | 173956


Range status and errors

Selected range

Filename D:\Ready.zp\Ten Years After - Watt (F2 21085).wav

Peak level 100.0 %
Extraction speed 2.6 X
Range quality 100.0 %
Test CRC 043F90A7
Copy CRC 043F90A7
Copy OK

No errors occurred


AccurateRip summary

Track 1 accurately ripped (confidence 11) [F9AC34CA] (AR v2)
Track 2 accurately ripped (confidence 11) [EC8CEA49] (AR v2)
Track 3 accurately ripped (confidence 11) [EC60C76D] (AR v2)
Track 4 accurately ripped (confidence 11) [E63A12C9] (AR v2)
Track 5 accurately ripped (confidence 11) [E0E5C9DA] (AR v2)
Track 6 accurately ripped (confidence 11) [5A7197A2] (AR v2)
Track 7 accurately ripped (confidence 11) [9E17C352] (AR v2)
Track 8 accurately ripped (confidence 11) [63D2C1CE] (AR v2)

All tracks accurately ripped

End of status report

–– CUETools DB Plugin V2.1.3

[CTDB TOCID: PgDi3T_hIqUKLz9Ej0IzvRruktc-] found, Submit result: PgDi3T_hIqUKLz9Ej0IzvRruktc- has been confirmed
[2465408a] (13/13) Accurately ripped


==== Log checksum 81F2D5260E44385C5DE11466A4F0A0E11327454B01C270571EDE24A198C8C0A0 ====

foobar2000 1.3.9 / Замер динамического диапазона (DR) 1.1.1
Дата отчёта: 2016-02-22 11:05:01

––––––––––––––––––––––––––––––––––––––––
Анализ: Ten Years After / Watt (F2 21085)
––––––––––––––––––––––––––––––––––––––––

DR Пики RMS Продолжительность трека
––––––––––––––––––––––––––––––––––––––––
DR12 -0.31 дБ -13.82 дБ 3:49 1-I'm Coming On
DR11 0.00 дБ -15.23 дБ 5:25 2-My Baby Left Me
DR10 -2.83 дБ -15.90 дБ 4:46 3-Think About The Times
DR10 -2.48 дБ -14.44 дБ 5:18 4-I Say Yeah
DR11 -2.71 дБ -18.03 дБ 1:39 5-The Band With No Name
DR12 -2.05 дБ -16.12 дБ 6:04 6-Gonna Run
DR10 -1.72 дБ -14.04 дБ 7:27 7-She Lies In The Morning
DR10 -1.19 дБ -13.72 дБ 4:11 8-Sweet Little Sixteen
––––––––––––––––––––––––––––––––––––––––

Количество треков: 8
Реальные значения DR: DR11

Частота: 44100 Гц
Каналов: 2
Разрядность: 16
Битрейт: 860 кбит/с
Кодек: FLAC

[CUETools log; Date: 22.02.2016 11:05:47; Version: 2.1.4]
[CTDB TOCID: PgDi3T_hIqUKLz9Ej0IzvRruktc-] found.
Track | CTDB Status
1 | (14/14) Accurately ripped
2 | (14/14) Accurately ripped
3 | (14/14) Accurately ripped
4 | (14/14) Accurately ripped
5 | (14/14) Accurately ripped
6 | (14/14) Accurately ripped
7 | (14/14) Accurately ripped
8 | (14/14) Accurately ripped
[AccurateRip ID: 000b7f9e-004d5810-5b090f08] found.
Track [ CRC | V2 ] Status
01 [c3a3e573|f9ac34ca] (17+11/38) Accurately ripped
02 [83cd629e|ec8cea49] (17+11/38) Accurately ripped
03 [0cf34af4|ec60c76d] (17+11/38) Accurately ripped
04 [d201733c|e63a12c9] (17+11/38) Accurately ripped
05 [a708b029|e0e5c9da] (17+11/38) Accurately ripped
06 [28333eca|5a7197a2] (17+11/38) Accurately ripped
07 [ca31cd1e|9e17c352] (17+11/38) Accurately ripped
08 [28b8cb21|63d2c1ce] (17+11/38) Accurately ripped
Offsetted by -2049:
01 [cdacb06b] (04/38) Accurately ripped
02 [9a68bb45] (04/38) Accurately ripped
03 [a257d6d0] (04/38) Accurately ripped
04 [d99165b7] (04/38) Accurately ripped
05 [788e3b52] (04/38) Accurately ripped
06 [85a9366c] (04/38) Accurately ripped
07 [9e6202dd] (04/38) Accurately ripped
08 [b1bce7d9] (04/38) Accurately ripped
Offsetted by -2318:
01 [a9e0b693] (00/38) No match (V2 was not tested)
02 [f28cff6f] (00/38) No match (V2 was not tested)
03 [b7439af3] (00/38) No match (V2 was not tested)
04 [e417646b] (00/38) No match (V2 was not tested)
05 [2cf2f0e8] (00/38) No match (V2 was not tested)
06 [05ad932c] (00/38) No match (V2 was not tested)
07 [adeeafff] (00/38) No match (V2 was not tested)
08 [2ce6ddb9] (00/38) No match (V2 was not tested)

Track Peak [ CRC32 ] [W/O NULL] [ LOG ]
– 100,0 [043F90A7] [C4F5D068] CRC32
01 96,5 [56C1B618] [FDCB0E07]
02 100,0 [99DCDBCD] [862004D7]
03 72,2 [4DE3998E] [02D8B39D]
04 75,1 [0E8F02D7] [3E3E1F79]
05 73,1 [F4298255] [CB948171]
06 78,9 [046E4593] [56850FC4]
07 82,0 [E35CFCD8] [C472ADC2]
08 87,1 [81034D72] [03347C84]

Ten Years After - Watt (1970)

All thanks go to Ready.zp

Ten Years After in my Blog

Download Ten Years After - Watt (1970):