Subcategories

Ten - Stormwarning (2011) [Japan]

Posted By: popsakov
Ten - Stormwarning (2011) [Japan]

Ten - Stormwarning (2011) [Japan]
EAC Rip | FLAC, Img+Cue, Log+Checker ~ 554 Mb | MP3 CBR320 ~ 164 Mb
Full Scans Included (JPG, 600 dpi) | FileSonic, FileServe | 3% Recovery
Melodic Hard Rock | Label: Frontiers Records / Avalon | Catalog#: MICP-10972

Stormwarning is the ninth studio album by the hard rock band Ten. Album release february 18, 2011, for the first time in four years.
Ten from Wiki
Ten - Stormwarning (2011) [Japan]

Turmoil is a word that could well describe what life has been like in the TEN camp over the past few years. Going through several line-up changes and a self imposed exiles from the scene, TEN for many seemed to be a name that wrote glorious pages in the darkest period of Melodic Hard Rock, failing to keep the flame alive when the momentum was raising again.

Still, TEN singer and principal songwriter, Gary Hughes knew he had another ace up his sleeve and decided to play it safe. For the new album “Stormwarning” he wanted first to have the right line-up and he enlisted the services of Neil Fraser on lead guitars and Mark Sumner on bass, in addition to long-time members John Helliwell on guitar and Paul Hodson on keyboards.

He then secured the masterful Mark Zonder (Fates Warning) to guest on the album taking care of the drum duties and made sure that none other than Dennis Ward (Pink Cream 69 and producer of Angra, Place Vendome, Sunstorm, Edenbridge among others) would mix and produce the album. Finally he made contact with the original designer of the “Spellbound” and “Babylon” covers, the renowned Spanish fantasy artist Luis Royo, to recreate the perfect graphics for the new album.

In the summer 2010 with all the groundwork done, Ten finally started the recording of “Stormwarning” an album that, like the name itself tells, is an inspiration for tales of glory, war, and death and of course love. Any rock fan who digs the sound that Rainbow carved out with “Difficult to Cure” or that Whitesnake brought to success with “1987” and that Gary Moore exalted with albums like “Final Frontier” or “Run For Cover” needs to have this record in their collection. And even for the well acquainted, TEN re-ignite memories of “The Name of The Rose” and “Spellbound”.

“Stormwarning” is TEN’s ninth original studio album. Considered by many fans and critics to be the best expression of British Classic Hard Rock in the nineties, TEN have won several reader’s charts in BURRN magazine (Japan’s leading HR / HM publication) and entered the sales charts in Germany as well Japan.

TEN:
Gary Hughes - Vocals, Guitars, Backing Vocals
John Halliwell - Guitars, Acoustic Guitars
Neil Fraser - Guitars, Lead Guitars
Paul Hodson - Keyboards and Synthesisers, Programming
Mark Sumner - Bass Guitars
With Mark Zonder - Drums and Percussion

Produced by Dennis Ward
~ from Frontiers
Ten - Stormwarning (2011) [Japan]

Track List:

01. Endless Symphony [07:26]
02. Centre Of My Universe [06:06]
03. Kingdom Come [05:35]
04. Book Of Secrets [05:18]
05. Stormwarning [05:40]
06. Invisible [05:38]
07. Love Song [07:06]
08. The Hourglass And The Landslide [04:49]
09. Destiny [06:13]
10. The Wave [05:32]
11. The Darkness (bonus track) [04:19]

Exact Audio Copy V0.99 prebeta 5 from 4. May 2009

Отчёт EAC об извлечении, выполненном 1. марта 2011, 21:08

TEN / STORMWARNING

Дисковод: Optiarc DVD RW AD-5590A Adapter: 3 ID: 0

Режим чтения : Достоверность
Использование точного потока : Да
Отключение кэша аудио : Да
Использование указателей C2 : Нет

Коррекция смещения при чтении : 48
Способность читать области Lead-in и Lead-out : Нет
Заполнение пропущенных сэмплов тишиной : Да
Удаление блоков с тишиной в начале и конце : Нет
При вычислениях CRC использовались нулевые сэмплы : Да
Интерфейс : Установленный внешний ASPI-интерфейс

Выходной формат : Пользовательский кодировщик
Выбранный битрейт : 320 kBit/s
Качество : Высокий
Добавление ID3-тэга : Нет
Утилита сжатия : C:\Program Files\EAC\flac\flac.exe
Дополнительные параметры : -8 -V %s


TOC извлечённого CD

Трек | Старт | Длительность | Начальный сектор | Конечный сектор
––––––––––––––––––––––––––––––––––-
1 | 0:00.00 | 7:26.11 | 0 | 33460
2 | 7:26.11 | 6:06.62 | 33461 | 60972
3 | 13:32.73 | 5:34.73 | 60973 | 86095
4 | 19:07.71 | 5:18.02 | 86096 | 109947
5 | 24:25.73 | 5:39.13 | 109948 | 135385
6 | 30:05.11 | 5:37.73 | 135386 | 160733
7 | 35:43.09 | 7:06.36 | 160734 | 192719
8 | 42:49.45 | 4:48.71 | 192720 | 214390
9 | 47:38.41 | 6:12.57 | 214391 | 242347
10 | 53:51.23 | 5:32.31 | 242348 | 267278
11 | 59:23.54 | 4:19.14 | 267279 | 286717


Характеристики диапазона извлечения и сообщения об ошибках

Выбранный диапазон

Имя файла G:\User Manual 3Q 2.5\My Music\Ten - Stormwarning 2011\TEN - STORMWARNING.wav

Пиковый уровень 98.8 %
Качество диапазона 100.0 %
CRC копии 1B7F4DB9
Копирование… OK

Ошибок не произошло


AccurateRip: сводка

Трек 1 нет в базе данных
Трек 2 нет в базе данных
Трек 3 нет в базе данных
Трек 4 нет в базе данных
Трек 5 нет в базе данных
Трек 6 нет в базе данных
Трек 7 нет в базе данных
Трек 8 нет в базе данных
Трек 9 нет в базе данных
Трек 10 нет в базе данных
Трек 11 нет в базе данных

Ни одного трека нет в базе AccurateRip

Конец отчёта

AUDIOCHECKER v2.0 beta (build 457) - by Dester - opdester@freemail.hu
~~~~~~~~~~~~~~~~~~~~~~~~~~~~~~~~~~
-=== НЕ РЕДАКТИРУЙТЕ ЭТОТ ФАЙЛ! ===-

Путь: …\Ten - 2011 - Stormwarning

1 -=- Ten - Stormwarning.flac -=- CDDA (100%)

90301908

[Verification date: 08.03.2011 22:20:25]
[Disc ID: 001b5066-00ea53c0-990eee0b]
Track [ CRC ] Status
01 [2bbef6fa] (01/01) Accurately ripped as in pressing(s) #1
02 [46d01a4e] (01/01) Accurately ripped as in pressing(s) #1
03 [20408faf] (01/01) Accurately ripped as in pressing(s) #1
04 [1855169e] (01/01) Accurately ripped as in pressing(s) #1
05 [a788126a] (01/01) Accurately ripped as in pressing(s) #1
06 [ad216569] (01/01) Accurately ripped as in pressing(s) #1
07 [0206bca2] (01/01) Accurately ripped as in pressing(s) #1
08 [c08c2b06] (01/01) Accurately ripped as in pressing(s) #1
09 [be083930] (01/01) Accurately ripped as in pressing(s) #1
10 [04a3b7f2] (01/01) Accurately ripped as in pressing(s) #1
11 [970b2dc7] (01/01) Accurately ripped as in pressing(s) #1

Track [ CRC32 ] [W/O NULL] [ LOG ]
– [1B7F4DB9] [1A075F35] CRC32
01 [6D4B5387] [F58F19CD]
02 [46F80597] [8C60EABC]
03 [772CE469] [9A7AD4B0]
04 [83DEE5CD] [DD3B4198]
05 [AEBAC1D4] [869EC47F]
06 [84DD92E5] [0A23593A]
07 [84F0BB72] [9943CC27]
08 [E20F1253] [B0E04FFF]
09 [338D77B9] [E4DC4EB2]
10 [0C103E6B] [2E823E1D]
11 [C17C42B8] [BEA7BDE3]

Ten - Stormwarning (2011) [Japan]

Ten - Stormwarning (2011) [Japan]


LOSSLESS

FileSonic:

part 1 | part 2 | part 3 | part 4 | part 5 | part 6

FileServe:

part 1 | part 2 | part 3 | part 4 | part 5 | part 6


mp3

FileSonic: part 1 | FileSonic: part 2

FileServe: part 1 | FileServe: part 2

pass: shsv

In case you encounter dead links, please send me a private message!

Visit my blog!

All thanks go to "kolushew"