Tags
Language
Tags

Terra Nova - Ring That Bell (2022) {Japanese Edition}

Posted By: popsakov
Terra Nova - Ring That Bell (2022) {Japanese Edition}

Terra Nova - Ring That Bell (2022) {Japanese Edition}
XLD Rip | FLAC (Img) + Cue + Log ~ 392 Mb | MP3 CBR320 ~ 147 Mb
Full Scans | 00:57:08 | RAR 5% Recovery
Melodic Hard Rock, AOR | Nexus / King Record Co. #KICP-4036

Terra Nova is an AOR, Hard rock band from the Netherlands, that was formed in 1992. TERRA NOVA is latin for “the new world” and is one of the best bands emerged from the European melodic hard rock scene in the nineties. Formed during 1992, in may 1994 the band started the recording of the first album “Livin’ It Up”, finishing it in October 1995. One year later the album was published with big success by Victor Entertainment Inc. (JVC) in Japan. September 1997 saw the release of their second album in Japan called “Break Away” which was actually welcomed with great critical and public acclaim. “Livin’ It Up” was finally released in Europe by Now & Then in 1997. Soon after they attended the Gods festival in Wigan, UK and the band gained very much success even though most of the people never heard the band before. In January 1998 the band toured Japan for the first time again with high acclaim from the critic and the public. In July 1998 the finally band entered the studio to record their 3rd album for the Japanese market called “Make My Day”.

At the end of 1999 however persistent problems with their Dutch record company saw the band reach the end of their patience and the end of the road. Reluctantly, but perhaps inevitably, the band split. Brothers Ron and Fred Hendrix forged the Pop-Rock outfit AQUILA. But their hunger for rock reignited when Frontiers Records President Serafino Perugino pushed the guys for a reunion album in 2005.

“Escape” the come-back release in 2005, has gathered excellent responses from the critic and fans, and the “Best Of” now gives a glance to the past production of the band during the nineties. “Come Alive” was released on July 2nd in Europe, July 27th in the U.S.A. and August 25th in Japan 2010. In March 2015 the album called “Reinvent Yourself” was released. In 2018 the new album “Raise Your Voice” was released.

***************

Track List:

01. Carpe Diem [4:42]
02. Crank It Up [4:04]
03. What's Broken Can Be Mend [3:52]
04. Ring That Bell [4:08]
05. Home [5:03]
06. Angles & Demons [4:56]
07. Bust Your Balls [4:05]
08. Where Do We Go From Here [4:20]
09. Running On Empty [4:32]
10. Touch Down [4:15]
11. Gimme Shelter [4:27]
12. Second Chances [4:42]
13. We Are [4:09]

X Lossless Decoder version 20211018 (154.0)

XLD extraction logfile from 2022-05-07 14:20:51 +1000

Terra Nova / Ring That Bell [Bonus Track]

Used drive : HL-DT-ST DVDRW GX50N (revision RR06)
Media type : Pressed CD

Ripper mode : XLD Secure Ripper
Disable audio cache : OK for the drive with a cache less than 1375KiB
Make use of C2 pointers : NO
Read offset correction : 6
Max retry count : 20
Gap status : Analyzed, Appended

TOC of the extracted CD
Track | Start | Length | Start sector | End sector
––––––––––––––––––––––––––––-
1 | 00:00:00 | 04:41:02 | 0 | 21076
2 | 04:41:02 | 04:03:03 | 21077 | 39304
3 | 08:44:05 | 03:51:68 | 39305 | 56697
4 | 12:35:73 | 04:07:46 | 56698 | 75268
5 | 16:43:44 | 05:02:27 | 75269 | 97945
6 | 21:45:71 | 04:55:17 | 97946 | 120087
7 | 26:41:13 | 04:04:44 | 120088 | 138431
8 | 30:45:57 | 04:19:57 | 138432 | 157913
9 | 35:05:39 | 04:31:53 | 157914 | 178291
10 | 39:37:17 | 04:14:66 | 178292 | 197407
11 | 43:52:08 | 04:26:16 | 197408 | 217373
12 | 48:18:24 | 04:41:30 | 217374 | 238478
13 | 52:59:54 | 04:08:18 | 238479 | 257096

AccurateRip Summary
Disc not found in AccurateRip DB.

All Tracks
Filename : /Volumes/Seagate Backup Plus Drive/Music/1 My COLLECTION/Terra Nova/2022 - Ring That Bell/Ring That Bell [Bonus Track].flac
CRC32 hash (test run) : A18A785D
CRC32 hash : A18A785D
CRC32 hash (skip zero) : 781560AA
Statistics
Read error : 0
Jitter error (maybe fixed) : 0
Retry sector count : 0
Damaged sector count : 0

Track 01
Pre-gap length : 00:02:00

CRC32 hash (test run) : 0832D693
CRC32 hash : 0832D693
CRC32 hash (skip zero) : 80BEA0BF
AccurateRip v1 signature : CD7EF617
AccurateRip v2 signature : 0A2870BA
->Track not present in AccurateRip database.
Statistics
Read error : 0
Jitter error (maybe fixed) : 0
Retry sector count : 0
Damaged sector count : 0

Track 02
Pre-gap length : 00:02:00

CRC32 hash (test run) : 5B3E3250
CRC32 hash : 5B3E3250
CRC32 hash (skip zero) : 4CAB1817
AccurateRip v1 signature : 211894FF
AccurateRip v2 signature : 1A1B210E
->Track not present in AccurateRip database.
Statistics
Read error : 0
Jitter error (maybe fixed) : 0
Retry sector count : 0
Damaged sector count : 0

Track 03
Pre-gap length : 00:02:00

CRC32 hash (test run) : 09405DF0
CRC32 hash : 09405DF0
CRC32 hash (skip zero) : 8C052445
AccurateRip v1 signature : A8073DC8
AccurateRip v2 signature : AD6E90BE
->Track not present in AccurateRip database.
Statistics
Read error : 0
Jitter error (maybe fixed) : 0
Retry sector count : 0
Damaged sector count : 0

Track 04
Pre-gap length : 00:02:00

CRC32 hash (test run) : 6BF998F1
CRC32 hash : 6BF998F1
CRC32 hash (skip zero) : 10360078
AccurateRip v1 signature : 14C2F9FA
AccurateRip v2 signature : AE3D1766
->Track not present in AccurateRip database.
Statistics
Read error : 0
Jitter error (maybe fixed) : 0
Retry sector count : 0
Damaged sector count : 0

Track 05
Pre-gap length : 00:02:00

CRC32 hash (test run) : 21E7A60A
CRC32 hash : 21E7A60A
CRC32 hash (skip zero) : 85B25A6F
AccurateRip v1 signature : 33D927B2
AccurateRip v2 signature : 3FD8755B
->Track not present in AccurateRip database.
Statistics
Read error : 0
Jitter error (maybe fixed) : 0
Retry sector count : 0
Damaged sector count : 0

Track 06
Pre-gap length : 00:02:00

CRC32 hash (test run) : EDFAC81D
CRC32 hash : EDFAC81D
CRC32 hash (skip zero) : 769F32D0
AccurateRip v1 signature : 4D2266AE
AccurateRip v2 signature : 98B20A0A
->Track not present in AccurateRip database.
Statistics
Read error : 0
Jitter error (maybe fixed) : 0
Retry sector count : 0
Damaged sector count : 0

Track 07
Pre-gap length : 00:02:00

CRC32 hash (test run) : 86C02091
CRC32 hash : 86C02091
CRC32 hash (skip zero) : C1C745AF
AccurateRip v1 signature : C8426FCB
AccurateRip v2 signature : 1918EDE2
->Track not present in AccurateRip database.
Statistics
Read error : 0
Jitter error (maybe fixed) : 0
Retry sector count : 0
Damaged sector count : 0

Track 08
Pre-gap length : 00:02:00

CRC32 hash (test run) : 08F6C59A
CRC32 hash : 08F6C59A
CRC32 hash (skip zero) : D8854C43
AccurateRip v1 signature : 0D128202
AccurateRip v2 signature : EFCB54C1
->Track not present in AccurateRip database.
Statistics
Read error : 0
Jitter error (maybe fixed) : 0
Retry sector count : 0
Damaged sector count : 0

Track 09
Pre-gap length : 00:02:00

CRC32 hash (test run) : 16E99703
CRC32 hash : 16E99703
CRC32 hash (skip zero) : DAACB20F
AccurateRip v1 signature : 58CA151D
AccurateRip v2 signature : 3D70C50A
->Track not present in AccurateRip database.
Statistics
Read error : 0
Jitter error (maybe fixed) : 0
Retry sector count : 0
Damaged sector count : 0

Track 10
Pre-gap length : 00:02:00

CRC32 hash (test run) : 6CBE927A
CRC32 hash : 6CBE927A
CRC32 hash (skip zero) : 5D614644
AccurateRip v1 signature : 56EAEF7D
AccurateRip v2 signature : 96486C18
->Track not present in AccurateRip database.
Statistics
Read error : 0
Jitter error (maybe fixed) : 0
Retry sector count : 0
Damaged sector count : 0

Track 11
Pre-gap length : 00:02:00

CRC32 hash (test run) : 18B48F6D
CRC32 hash : 18B48F6D
CRC32 hash (skip zero) : F20DAE54
AccurateRip v1 signature : AC13154D
AccurateRip v2 signature : 31DABF75
->Track not present in AccurateRip database.
Statistics
Read error : 0
Jitter error (maybe fixed) : 0
Retry sector count : 0
Damaged sector count : 0

Track 12
Pre-gap length : 00:02:00

CRC32 hash (test run) : BEBC5B11
CRC32 hash : BEBC5B11
CRC32 hash (skip zero) : 37B9A3C6
AccurateRip v1 signature : F0B19047
AccurateRip v2 signature : 655E211E
->Track not present in AccurateRip database.
Statistics
Read error : 0
Jitter error (maybe fixed) : 0
Retry sector count : 0
Damaged sector count : 0

Track 13
Pre-gap length : 00:02:00

CRC32 hash (test run) : BCFB80C8
CRC32 hash : BCFB80C8
CRC32 hash (skip zero) : F6CF44E6
AccurateRip v1 signature : 5DC41B62
AccurateRip v2 signature : B6473F43
->Track not present in AccurateRip database.
Statistics
Read error : 0
Jitter error (maybe fixed) : 0
Retry sector count : 0
Damaged sector count : 0

No errors occurred

End of status report

––-BEGIN XLD SIGNATURE––-
0yAQMDcIsgpDfH.4yCk.T2Qi8TQ.Izgpt3nR7iP8bPVs4weklq_mkoPYbpE6iOAOqrPMAKIdml.nPfyDBrmVg4bg7SVEBALvXj7AiwW
––-END XLD SIGNATURE––-

All thanks go to anvador

>>> My Blog <<<

DOWNLOAD: