Tags
Language
Tags

Tete Montoliu Trio - Tete! (1974) {SleepleChase}

Posted By: tiburon
Tete Montoliu Trio - Tete! (1974) {SleepleChase}

Tete Montoliu Trio - Tete! (1974) {SleepleChase}
EAC 0.99pb5 | FLAC Image level 8 | Cue+Log | Full Scans 300dpi | 282MB + 5% Recovery
MP3 CBR 320 Kbps | 114MB + 5% Recovery
Genre: Jazz, Hard-Bop, Post-Bop

Tete Montoliu's fourth CD for Steeplechase is primarily a fun-filled trio date with bassist Niels-Henning Ørsted Pedersen and drummer Albert "Tootie" Heath, frequent collaborators with the blind pianist.
Track List
01. Giant Steps
02. Theme For Ernie
03. Body and Soul
04. Solar
05. I Remember Clifford
06. Hot House

musicians
Tete Montoliu - piano
Niels-Henning Orsted Pedersen - bass
Albert "Tootie" Heath - drums

Recorded at Rosenberg Studio, Copenhagen, May 28, 1974

Produced by Nils Winther


Exact Audio Copy V0.99 prebeta 5 from 4. May 2009

EAC extraction logfile from 8. May 2011, 16:40

Tete Montoliu / Tete!

Used drive : HL-DT-STDVDRAM GH22NS40 Adapter: 1 ID: 0

Read mode : Secure
Utilize accurate stream : Yes
Defeat audio cache : Yes
Make use of C2 pointers : No

Read offset correction : 667
Overread into Lead-In and Lead-Out : No
Fill up missing offset samples with silence : Yes
Delete leading and trailing silent blocks : No
Null samples used in CRC calculations : Yes
Used interface : Native Win32 interface for Win NT & 2000

Used output format : Internal WAV Routines
Sample format : 44.100 Hz; 16 Bit; Stereo


TOC of the extracted CD

Track | Start | Length | Start sector | End sector
––––––––––––––––––––––––––––-
1 | 0:00.00 | 6:28.03 | 0 | 29102
2 | 6:28.03 | 7:13.16 | 29103 | 61593
3 | 13:41.19 | 12:21.07 | 61594 | 117175
4 | 26:02.26 | 6:57.64 | 117176 | 148514
5 | 33:00.15 | 8:24.46 | 148515 | 186360
6 | 41:24.61 | 6:56.49 | 186361 | 217609


Range status and errors

Selected range

Filename D:\EAC\Tete Montoliu - Tete!.wav

Peak level 100.0 %
Range quality 99.8 %
Copy CRC 6D71A93A
Copy OK

No errors occurred

End of status report


––––––––––––––––––––––––––––––––––––––––
Analyzed: Tete Montoliu / Tete!
––––––––––––––––––––––––––––––––––––––––

DR Peak RMS Duration Track
––––––––––––––––––––––––––––––––––––––––
DR12 0.00 dB -13.82 dB 6:28 01-Giant Steps
DR12 0.00 dB -15.43 dB 7:13 02-Theme for Ernie
DR13 -0.13 dB -15.99 dB 12:21 03-Body and Soul
DR11 -0.49 dB -15.51 dB 6:58 04-Solar
DR13 -1.80 dB -19.43 dB 8:25 05-I remember Clifford
DR12 -0.37 dB -15.25 dB 6:47 06-Hot House
––––––––––––––––––––––––––––––––––––––––

Number of tracks: 6
Official DR value: DR12

Samplerate: 44100 Hz
Channels: 2
Bits per sample: 16
Bitrate: 807 kbps
Codec: FLAC
================================================================================

Tete Montoliu Trio - Tete! (1974) {SleepleChase}
Tete Montoliu Trio - Tete! (1974) {SleepleChase}
Tete Montoliu Trio - Tete! (1974) {SleepleChase}


Thanks to the original ripper