Tags
Language
Tags

The Beatles - 1st Live Recordings Vol 1 & 2 (1972) [Vinyl Rip 16/44 & mp3-320 + DVD] Re-up

Posted By: v3122
The Beatles - 1st Live Recordings Vol 1 & 2 (1972) [Vinyl Rip 16/44 & mp3-320 + DVD] Re-up

The Beatles - 1st Live Recordings Vol 1 & 2 (1972)
Vinyl Rip 16/44 | Flac(Image + Cue) > 276 Mb
MP3 CBR 320Kbps > 151 Mb | Artwork(png) > 521 Mb
DVD-5: NTSC 4:3 (720x480) VBR | LPCM, 2 ch, 24 bit, 96 kHz > 2.25 Gb
Pickwick Records | Rock

1st Live Recordings is a two-volume album series released by Pickwick Records in 1979 containing live performances by The Beatles. Adrian Barber, the stage manager at the Star Club, on the instructions by King Size Taylor, the leader of The Dominoes, another group from Liverpool, recorded this on a Grundig home tape recorder at 3​3⁄4 ips in December 1962, probably during three performances at Hamburg's Star Club on 25, 28 or 29 and 30 December. Though even The Beatles thought the sound quality was too poor for anything to be made of the recording, Lingasong Records spent about $100,000 rebuilding the sound into a 16-track master. The result of their effort is this recording. This recording includes Ringo Starr on drums, making this the first live recording of The Beatles. This same recording was previously released as Live! at the Star-Club in Hamburg, Germany; 1962 by Lingasong Records. Pickwick's version has been slightly altered to allow for more prominence in the vocals.

Two songs on the set, "Be-Bop-A-Lula" and "Halleluja, I Love Her So," feature the Beatles performing the instruments while Star-Club waiter, Horst Fascher provides the vocals. Another cut, the only track on the set to not appear on the original Lingasong release, "Hully Gully," does not include the Beatles at all. Rather, it is a recording by Cliff Bennett and the Rebel Rousers who performed at the club the same night…

~ wiki
The Beatles - 1st Live Recordings Vol 1 & 2 (1972):

The Beatles - 1st Live Recordings Vol 1 & 2 (1972) [Vinyl Rip 16/44 & mp3-320 + DVD] Re-up

The Beatles 1st Live Recordings Vol 1:

Side-1
01. "Where Have You Been All My Life" (Cynthia Weil/Barry Mann) – 1:55
02. "A Taste of Honey" (Bobby Scott/Rick Marlow) – 1:40
03. "Your Feets Too Big" (Ada Benson/Fred Fisher) – 2:20
04. "Mr. Moonlight" (R. Johnson) – 2:05
05. "Besame Mucho" (T. Velasquez) – 2:35
06. "I'm Gonna Sit Right Down and Cry (Over You)" (J. Thomas/H. Biggs) – 2:40
07. "Be-Bop-A-Lula" (G. Vincent/T. Davis) – 2:28

Side-2
08. "Halleluja I Love Her So" (Ray Charles) – 2:08
09. "'Till There Was You" (Meredith Willson) – 1:59
10. "Sweet Little Sixteen" (Chuck Berry) – 2:44
11. "Little Queenie" (Chuck Berry) – 3:53
12. "Kansas City/Hey Hey Hey Hey" (J. Leiber/M. Stoller/R. Penniman) – 2:09
13."Hully Gully" (F. Smith/C. Goldsmith) – 1:39

foobar2000 1.4 / Dynamic Range Meter 1.1.1
log date: 2018-10-30 02:15:55

––––––––––––––––––––––––––––––––––––––––
Analyzed: The Beatles / 1st Live Recordings Vol 1
––––––––––––––––––––––––––––––––––––––––

DR Peak RMS Duration Track
––––––––––––––––––––––––––––––––––––––––
DR10 -0.23 dB -12.94 dB 2:01 01-Where Have You Been All My Life
DR10 -2.02 dB -14.39 dB 2:16 02-A Taste of Honey
DR11 -1.62 dB -14.24 dB 2:25 03-Your Feets Too Big
DR12 -0.01 dB -13.56 dB 2:13 04-Mr. Moonlight
DR12 -0.99 dB -13.99 dB 2:54 05-Besame Mucho
DR11 -1.51 dB -13.86 dB 2:45 06-I'm Gonna Sit Right Down and Cry (Over You)
DR10 -1.83 dB -14.06 dB 1:58 07-Be-Bop-A-Lula
DR11 -1.61 dB -13.64 dB 2:12 08-Halleluja I Love Her So
DR10 -1.49 dB -13.67 dB 2:05 09-Till There Was You
DR10 -1.73 dB -14.27 dB 2:55 10-Sweet Little Sixteen
DR10 -0.81 dB -12.99 dB 4:00 11-Little Queenie
DR10 -2.95 dB -15.68 dB 2:47 12-Kansas City/Hey Hey Hey Hey
DR10 -2.62 dB -14.15 dB 1:39 13-Hully Gully
––––––––––––––––––––––––––––––––––––––––

Number of tracks: 13
Official DR value: DR11

Samplerate: 44100 Hz
Channels: 2
Bits per sample: 16
Bitrate: 788 kbps
Codec: FLAC
================================================================================



The Beatles - 1st Live Recordings Vol 1 & 2 (1972) [Vinyl Rip 16/44 & mp3-320 + DVD] Re-up

The Beatles 1st Live Recordings Vol 2:

Side-1
01. "Ain't Nothing Shakin'" (Fontaine, Colacrai, Lampert, Gluck) – 1:14
02. "Everybody's Trying to Be My Baby" (Carl Perkins) – 2:23
03. "Matchbox" (Carl Perkins) – 2:33
04. "Talking 'Bout You" (Ray Charles) – 1:47
05. "Long Tall Sally" (E. Johnson/R. Penniman) – 1:45
06. "Roll Over Beethoven" (Chuck Berry) – 2:12
07. "Hippy Hippy Shake" (Chan Romeo) – 1:40

Side-2
08. "Falling in Love Again" (S. Lerner/F. Hollander) – 1:59
09. "Lend Me Your Comb" (Twomey/Wyse/Weisman) – 1:44
10. "Sheila" (Tommy Roe) – 1:55
11. "Red Sails in the Sunset" (Jimmy Kennedy and Hal Williams) – 2:00
12. "To Know Her Is to Love Her" (Phil Spector) – 3:01
13. "Shimmy Shake" (Joe South and Billy Land) – 2:16
14. "I Remember You" (Johnny Mercer and Victor Schertzinger) – 1:55

foobar2000 1.4 / Dynamic Range Meter 1.1.1
log date: 2018-10-30 02:16:11

––––––––––––––––––––––––––––––––––––––––
Analyzed: The Beatles / 1st Live Recordings Vol 2
––––––––––––––––––––––––––––––––––––––––

DR Peak RMS Duration Track
––––––––––––––––––––––––––––––––––––––––
DR10 -2.54 dB -15.29 dB 1:52 01-Ain't Nothing Shakin
DR11 -2.14 dB -14.26 dB 2:43 02-Everybody's Trying to Be My Baby
DR10 -3.03 dB -14.11 dB 2:40 03-Matchbox
DR10 -2.85 dB -14.61 dB 1:59 04-Talking 'Bout You
DR11 -2.51 dB -14.84 dB 1:52 05-Long Tall Sally
DR10 -2.91 dB -15.19 dB 2:19 06-Roll Over Beethoven
DR11 -3.69 dB -15.94 dB 1:49 07-Hippy Hippy Shake
DR11 -1.20 dB -13.89 dB 2:12 08-Falling in Love Again
DR10 -1.60 dB -14.07 dB 2:13 09-Lend Me Your Comb
DR11 -1.76 dB -13.87 dB 2:01 10-Sheila
DR10 -1.94 dB -14.00 dB 2:28 11-Red Sails in the Sunset
DR10 -1.88 dB -13.30 dB 3:20 12-To Know Her Is to Love Her
DR10 -2.87 dB -14.42 dB 2:31 13-Shimmy Shake
DR11 -3.60 dB -15.52 dB 2:00 14-I Remember You
––––––––––––––––––––––––––––––––––––––––

Number of tracks: 14
Official DR value: DR10

Samplerate: 44100 Hz
Channels: 2
Bits per sample: 16
Bitrate: 806 kbps
Codec: FLAC
================================================================================



Title: AudioDVD
Size: 2.13 Gb ( 2 237 688,00 KBytes ) - DVD-5
Enabled regions: 1, 2, 3, 4, 5, 6, 7, 8

VTS_01 :
Play Length: 00:32:07+00:32:07
Video: NTSC 4:3 (720x480) VBR
Audio:
Not specified (LinearPCM, 2 ch)



Original ripper: EvgenKK
Original format: 24/96
Vinyl Condition: EX+
Cleaning:
Direct Drive Turntable: Yamaha PX-2 (Linear tracking)
Cartridge: MC Benz-Micro ACE SL
Amplifier: Phono input Rotel RC-1580
ADC: Creative EMU-1616 m PCI-e
Postprocessing:

Downsampled to 16/44

The Beatles - 			  		 	    		 	    	 			   		   	  			  	  		  	   	 			   		 	 	  		 	    	 			   		 		   		 						 1st Live Recordings Vol 1 & 2 (1972) [Vinyl Rip 16/44 & mp3-320 + DVD] Re-up

The Beatles - 1st Live Recordings Vol 1 & 2 (1972) [Vinyl Rip 16/44 & mp3-320 + DVD] Re-up

The Beatles - 1st Live Recordings Vol 1 & 2 (1972) [Vinyl Rip 16/44 & mp3-320 + DVD] Re-up

The Beatles in my Blog

Download The Beatles - 1st Live Recordings Vol 1 & 2 (1972):