Tags
Language
Tags

The Byrds ‎- The Byrds (1990) [4CD Box Set] Repost

Posted By: v3122
The Byrds ‎- The Byrds (1990) [4CD Box Set] Repost

The Byrds ‎- The Byrds (1990)
EAC | Flac(Image) + Cue + Log & MP3 CBR 320Kbps
Columbia, CK 46773 | ~ 1598 or 630 Mb | Scans(jpg) -> 450 Mb
Folk Rock, Country Rock, Psychedelic Rock

When the four-CD Byrds set was first released in 1990, it was something of a landmark in Columbia Records' history on several counts. For starters, it was the first box set ever released by Columbia Records' pop division (as opposed to its jazz division) devoted to a noncurrent act (that is, they'd already issued boxes on Bob Dylan and Bruce Springsteen, but both of them were active artists), and there had been boxes of sorts on Miles Davis and some other jazz figures, but their place in music history was already a given, whereas the Byrds, to Columbia Records' management and a lot of mainstream critics and even most listeners not attuned to their history, were "nothing" but a defunct rock act. In a sense, this set was a long-overdue declaration of their importance, in addition to being the first good-sounding CD incarnation of their work ever to come from Columbia. For five years or more prior to that, listeners had been forced to endure poorly mastered, inadequate CDs of their work. It took this project, plus the work of a lot of people behind the scenes and an unending stream of complaints from consumers, to get the label to find the right source tapes and then treat them right in digitizing them. In the decade and a half since its release, the Byrds box has receded in obvious importance as the group's entire catalog was subsequently upgraded and many of the rarities and outtakes in this set appended as bonus tracks on those separate CDs of their albums. But it remains the best overview of their history ever assembled, despite a few minor flaws in its content. One suspects, for instance, that had Bob Irwin, who oversaw the later upgrading of the group's albums, been producing this box, there might be a few tracks predating the hit of "Mr. Tambourine Man," from the group's Elektra recordings (as "the Beefeaters"), or their demos as the Jet Set; and maybe the audio portion of their live set from The Big TNT Show or perhaps a track or two from the Monterey Pop Festival; and, conversely, two or three fewer tracks representing the Skip Battin/Gene Parsons lineup of the band. But strangely enough, along with British CBS' double-LP History of the Byrds and the more recent Essential Byrds, this four-disc set is one of only three attempts at doing a comprehensive history of the group, and it's still got all of the competition beat right out of the starting gate, and well worth owning.

by Bruce Eder, allmusic
The Byrds ‎- The Byrds (1990):

The Byrds ‎- The Byrds (1990) [4CD Box Set] Repost

Tracklist CD1 - We Have Ignition:

1."Mr. Tambourine Man" (Bob Dylan) – 2:29 †
2."I'll Feel a Whole Lot Better" (Gene Clark) – 2:31
3."Chimes of Freedom" (Bob Dylan) – 3:50
4."She Has a Way" (Gene Clark) – 2:30 †
5."All I Really Want to Do" [LP version] (Bob Dylan) – 2:03
6."Spanish Harlem Incident" (Bob Dylan) – 1:57
7."The Bells of Rhymney" (Idris Davies, Pete Seeger) – 3:31
8."It's All Over Now, Baby Blue" (Bob Dylan) – 2:56 †
9."She Don't Care About Time" (Gene Clark) – 2:31 ø
10."Turn! Turn! Turn! (to Everything There Is a Season)" (Book of Ecclesiastes/Pete Seeger) – 3:54 #
11."It Won't Be Wrong" (Roger McGuinn, Harvey Gerst) – 1:57 #
12."Lay Down Your Weary Tune" (Bob Dylan) – 3:30 #
13."He Was a Friend of Mine" (traditional, new words and arrangement Roger McGuinn) – 2:10
14."The World Turns All Around Her" (Gene Clark) – 2:14 #
15."The Day Walk (Never Before)" (Gene Clark) – 3:00 †
16."The Times They Are a-Changin'" (Bob Dylan) – 2:18 #
17."5D (Fifth Dimension)" (Roger McGuinn) – 2:34 #
18."I Know My Rider" (traditional, arranged Roger McGuinn, Gene Clark, David Crosby) – 2:44 †
19."Eight Miles High" (Gene Clark, David Crosby, Roger McGuinn) – 3:34
20."Why" (David Crosby, Roger McGuinn) – 2:58 †
21."Psychodrama City" (David Crosby) – 3:24 †
22."I See You" (David Crosby, Roger McGuinn) – 2:37 #
23."Hey Joe" (Billy Roberts) – 2:25 #

Exact Audio Copy V0.99 prebeta 4 from 23. January 2008

EAC extraction logfile from 23. January 2010, 12:36

Byrds / The Byrds Box Set - We Have Ignition (disc 1)

Used drive : HL-DT-STDVD-ROM GDR8164B Adapter: 0 ID: 1

Read mode : Secure
Utilize accurate stream : Yes
Defeat audio cache : Yes
Make use of C2 pointers : No

Read offset correction : 102
Overread into Lead-In and Lead-Out : No
Fill up missing offset samples with silence : Yes
Delete leading and trailing silent blocks : No
Null samples used in CRC calculations : Yes
Used interface : Native Win32 interface for Win NT & 2000
Gap handling : Appended to previous track

Used output format : User Defined Encoder
Selected bitrate : 128 kBit/s
Quality : High
Add ID3 tag : No
Command line compressor : C:\Archivos de programa\Exact Audio Copy\Flac\flac.exe
Additional command line options : -8 -V -T "artist=%a" -T "title=%t" -T "album=%g" -T "date=%y" -T "tracknumber=%n" -T "genre=%m" %s


TOC of the extracted CD

Track | Start | Length | Start sector | End sector
––––––––––––––––––––––––––––-
1 | 0:00.00 | 2:19.25 | 0 | 10449
2 | 2:19.25 | 2:33.27 | 10450 | 21951
3 | 4:52.52 | 3:52.33 | 21952 | 39384
4 | 8:45.10 | 2:31.72 | 39385 | 50781
5 | 11:17.07 | 2:04.53 | 50782 | 60134
6 | 13:21.60 | 1:59.40 | 60135 | 69099
7 | 15:21.25 | 3:33.02 | 69100 | 85076
8 | 18:54.27 | 2:57.58 | 85077 | 98409
9 | 21:52.10 | 2:33.05 | 98410 | 109889
10 | 24:25.15 | 3:55.45 | 109890 | 127559
11 | 28:20.60 | 1:59.30 | 127560 | 136514
12 | 30:20.15 | 3:31.30 | 136515 | 152369
13 | 33:51.45 | 2:12.00 | 152370 | 162269
14 | 36:03.45 | 2:16.02 | 162270 | 172471
15 | 38:19.47 | 3:02.50 | 172472 | 186171
16 | 41:22.22 | 2:19.15 | 186172 | 196611
17 | 43:41.37 | 2:36.53 | 196612 | 208364
18 | 46:18.15 | 2:45.22 | 208365 | 220761
19 | 49:03.37 | 3:35.73 | 220762 | 236959
20 | 52:39.35 | 3:00.50 | 236960 | 250509
21 | 55:40.10 | 3:25.27 | 250510 | 265911
22 | 59:05.37 | 2:39.20 | 265912 | 277856
23 | 61:44.57 | 2:25.33 | 277857 | 288764


Track 1

Filename E:\EAC_RIP_FLAC\01 - Mr. Tambourine Man.wav

Pre-gap length 0:00:02.00

Peak level 100.0 %
Track quality 100.0 %
Test CRC DF33B71B
Copy CRC DF33B71B
Accurately ripped (confidence 41) [331EB1ED]
Copy OK

Track 2

Filename E:\EAC_RIP_FLAC\02 - II'll Feel A Whole Lot Better.wav

Pre-gap length 0:00:01.86

Peak level 89.9 %
Track quality 100.0 %
Test CRC 040CD34D
Copy CRC 040CD34D
Accurately ripped (confidence 43) [60F204A9]
Copy OK

Track 3

Filename E:\EAC_RIP_FLAC\03 - Chimes of Freedom.wav

Pre-gap length 0:00:01.80

Peak level 89.6 %
Track quality 99.9 %
Test CRC E8B1C5BE
Copy CRC E8B1C5BE
Accurately ripped (confidence 43) [3E3A7CF3]
Copy OK

Track 4

Filename E:\EAC_RIP_FLAC\04 - She Has A Way.wav

Pre-gap length 0:00:01.84

Peak level 83.7 %
Track quality 100.0 %
Test CRC DC27694F
Copy CRC DC27694F
Accurately ripped (confidence 41) [7204BE47]
Copy OK

Track 5

Filename E:\EAC_RIP_FLAC\05 - All I Really Want To Do.wav

Pre-gap length 0:00:01.80

Peak level 93.6 %
Track quality 100.0 %
Test CRC AF074F7B
Copy CRC AF074F7B
Accurately ripped (confidence 42) [6FF45407]
Copy OK

Track 6

Filename E:\EAC_RIP_FLAC\06 - Spanish Harlem Incident.wav

Pre-gap length 0:00:01.80

Peak level 95.5 %
Track quality 99.9 %
Test CRC 1C5B6EDD
Copy CRC 1C5B6EDD
Accurately ripped (confidence 43) [04E4CD55]
Copy OK

Track 7

Filename E:\EAC_RIP_FLAC\07 - The Bells Of Rhymney.wav

Pre-gap length 0:00:01.80

Peak level 89.8 %
Track quality 100.0 %
Test CRC 166A5DD7
Copy CRC 166A5DD7
Accurately ripped (confidence 42) [6B0C44DA]
Copy OK

Track 8

Filename E:\EAC_RIP_FLAC\08 - It's All Over Now, Baby Blue.wav

Pre-gap length 0:00:01.82

Peak level 95.7 %
Track quality 100.0 %
Test CRC B493B5E6
Copy CRC B493B5E6
Accurately ripped (confidence 42) [83F727B8]
Copy OK

Track 9

Filename E:\EAC_RIP_FLAC\09 - She Don't Care About Time.wav

Pre-gap length 0:00:01.84

Peak level 82.7 %
Track quality 99.9 %
Test CRC 22B9C4A8
Copy CRC 22B9C4A8
Accurately ripped (confidence 41) [A51CBDF8]
Copy OK

Track 10

Filename E:\EAC_RIP_FLAC\10 - Turn! Turn! Turn! (To Everything There Is A Season).wav

Pre-gap length 0:00:01.84

Peak level 98.7 %
Track quality 100.0 %
Test CRC 07CFCA96
Copy CRC 07CFCA96
Accurately ripped (confidence 41) [DDEF09B0]
Copy OK

Track 11

Filename E:\EAC_RIP_FLAC\11 - It Won't Be Wrong.wav

Pre-gap length 0:00:01.86

Peak level 100.0 %
Track quality 100.0 %
Test CRC 03D24FD0
Copy CRC 03D24FD0
Accurately ripped (confidence 43) [1F1D720B]
Copy OK

Track 12

Filename E:\EAC_RIP_FLAC\12 - Lay Done Your Weary Tune.wav

Pre-gap length 0:00:01.80

Peak level 91.0 %
Track quality 100.0 %
Test CRC AD6A04CB
Copy CRC AD6A04CB
Accurately ripped (confidence 42) [A092E3F6]
Copy OK

Track 13

Filename E:\EAC_RIP_FLAC\13 - He Was A Friend Of Mine.wav

Pre-gap length 0:00:01.80

Peak level 88.1 %
Track quality 100.0 %
Test CRC C3043589
Copy CRC C3043589
Accurately ripped (confidence 41) [45858B0D]
Copy OK

Track 14

Filename E:\EAC_RIP_FLAC\14 - The World Turns All Around Her.wav

Pre-gap length 0:00:01.86

Peak level 100.0 %
Track quality 100.0 %
Test CRC 0816B61B
Copy CRC 0816B61B
Accurately ripped (confidence 41) [FB63B911]
Copy OK

Track 15

Filename E:\EAC_RIP_FLAC\15 - The Day Walk (Never Before).wav

Pre-gap length 0:00:01.86

Peak level 100.0 %
Track quality 100.0 %
Test CRC 40CAAC05
Copy CRC 40CAAC05
Accurately ripped (confidence 40) [B7938697]
Copy OK

Track 16

Filename E:\EAC_RIP_FLAC\16 - The Times They Are A-Changin'.wav

Pre-gap length 0:00:01.86

Peak level 84.4 %
Track quality 100.0 %
Test CRC 0A0948A9
Copy CRC 0A0948A9
Accurately ripped (confidence 42) [9CDBF686]
Copy OK

Track 17

Filename E:\EAC_RIP_FLAC\17 - 5D (Fifth Dimension).wav

Pre-gap length 0:00:01.80

Peak level 100.0 %
Track quality 99.9 %
Test CRC 51B1D713
Copy CRC 51B1D713
Accurately ripped (confidence 43) [4D16625C]
Copy OK

Track 18

Filename E:\EAC_RIP_FLAC\18 - I Know My Rider.wav

Pre-gap length 0:00:01.86

Peak level 100.0 %
Track quality 100.0 %
Test CRC 52675EED
Copy CRC 52675EED
Accurately ripped (confidence 41) [EF4FD8AB]
Copy OK

Track 19

Filename E:\EAC_RIP_FLAC\19 - Eight Miles High.wav

Pre-gap length 0:00:01.73

Peak level 100.0 %
Track quality 100.0 %
Test CRC 141C1DCF
Copy CRC 141C1DCF
Accurately ripped (confidence 43) [5420D967]
Copy OK

Track 20

Filename E:\EAC_RIP_FLAC\20 - Why.wav

Pre-gap length 0:00:01.80

Peak level 90.8 %
Track quality 99.9 %
Test CRC 55E3293C
Copy CRC 55E3293C
Accurately ripped (confidence 42) [596B0459]
Copy OK

Track 21

Filename E:\EAC_RIP_FLAC\21 - Psychodrama City.wav

Pre-gap length 0:00:01.90

Peak level 100.0 %
Track quality 100.0 %
Test CRC 5F916A39
Copy CRC 5F916A39
Accurately ripped (confidence 41) [596033FD]
Copy OK

Track 22

Filename E:\EAC_RIP_FLAC\22 - I See You.wav

Pre-gap length 0:00:01.82

Peak level 89.7 %
Track quality 100.0 %
Test CRC 6145DA65
Copy CRC 6145DA65
Accurately ripped (confidence 41) [4995B039]
Copy OK

Track 23

Filename E:\EAC_RIP_FLAC\23 - Hey Joe (Where You Gonna Go).wav

Pre-gap length 0:00:01.86

Peak level 100.0 %
Track quality 99.9 %
Test CRC D5CDD071
Copy CRC D5CDD071
Accurately ripped (confidence 38) [F67AB09D]
Copy OK


All tracks accurately ripped

No errors occurred

End of status report


[CUETools log; Date: 08.10.2018 3:37:28; Version: 2.1.4]
[AccurateRip ID: 00344fbb-036aba66-2c0f0a17] found.
Track [ CRC | V2 ] Status
01 [331eb1ed|027f8845] (070+108/194) Accurately ripped
02 [60f204a9|43780321] (072+108/196) Accurately ripped
03 [3e3a7cf3|05be1745] (072+107/195) Accurately ripped
04 [7204be47|184994fc] (070+107/192) Accurately ripped
05 [6ff45407|26dc5626] (071+109/196) Accurately ripped
06 [04e4cd55|02fb9b71] (072+107/195) Accurately ripped
07 [6b0c44da|7576d8cd] (071+106/193) Accurately ripped
08 [83f727b8|d3159625] (071+107/193) Accurately ripped
09 [a51cbdf8|26e6631a] (070+106/192) Accurately ripped
10 [ddef09b0|2936ec4e] (070+107/193) Accurately ripped
11 [1f1d720b|b580e339] (072+106/194) Accurately ripped
12 [a092e3f6|0c024c95] (071+107/194) Accurately ripped
13 [45858b0d|a490a48e] (070+108/194) Accurately ripped
14 [fb63b911|3f0d4fcb] (070+106/192) Accurately ripped
15 [b7938697|8faa24f0] (069+105/190) Accurately ripped
16 [9cdbf686|02a719c5] (071+107/194) Accurately ripped
17 [4d16625c|a5fa54f6] (072+106/194) Accurately ripped
18 [ef4fd8ab|e879946d] (070+105/191) Accurately ripped
19 [5420d967|a817b83f] (072+105/193) Accurately ripped
20 [596b0459|6bedd444] (071+105/191) Accurately ripped
21 [596033fd|796d7185] (070+105/191) Accurately ripped
22 [4995b039|54e3b97b] (069+105/190) Accurately ripped
23 [f67ab09d|d221c91a] (067+106/189) Accurately ripped
Offsetted by -939:
01 [e7f36a60] (006/194) Accurately ripped
02 [a5e663ce] (006/196) Accurately ripped
03 [2c77d347] (006/195) Accurately ripped
04 [30db70eb] (005/192) Accurately ripped
05 [688acd90] (006/196) Accurately ripped
06 [f1e5c16d] (006/195) Accurately ripped
07 [98cd27b3] (006/193) Accurately ripped
08 [78645f4b] (005/193) Accurately ripped
09 [54f1bd0b] (006/192) Accurately ripped
10 [6165d77e] (006/193) Accurately ripped
11 [bb0b0344] (006/194) Accurately ripped
12 [22ffebe7] (006/194) Accurately ripped
13 [786d8528] (006/194) Accurately ripped
14 [aee5ea84] (006/192) Accurately ripped
15 [baf7cd63] (006/190) Accurately ripped
16 [345d7c02] (006/194) Accurately ripped
17 [0b1cd08b] (006/194) Accurately ripped
18 [099d1cc4] (006/191) Accurately ripped
19 [b9403ebe] (006/193) Accurately ripped
20 [6f83888b] (005/191) Accurately ripped
21 [224ada59] (006/191) Accurately ripped
22 [467f22b0] (006/190) Accurately ripped
23 [832e71b6] (006/189) Accurately ripped
Offsetted by -1958:
01 [7b631ea3] (000/194) No match (V2 was not tested)
02 [5ff665a3] (000/196) No match (V2 was not tested)
03 [82b3d85b] (000/195) No match (V2 was not tested)
04 [127e5d4f] (000/192) No match (V2 was not tested)
05 [fdce6789] (000/196) No match (V2 was not tested)
06 [1d140c05] (000/195) No match (V2 was not tested)
07 [3ff4e5fc] (000/193) No match (V2 was not tested)
08 [0969c0ae] (000/193) No match (V2 was not tested)
09 [e151edee] (000/192) No match (V2 was not tested)
10 [9201366c] (000/193) No match (V2 was not tested)
11 [fe04e9ed] (000/194) No match (V2 was not tested)
12 [942f15c8] (000/194) No match (V2 was not tested)
13 [88698893] (000/194) No match (V2 was not tested)
14 [03d487c7] (000/192) No match (V2 was not tested)
15 [1786b36f] (000/190) No match (V2 was not tested)
16 [86fd65be] (000/194) No match (V2 was not tested)
17 [6275daca] (000/194) No match (V2 was not tested)
18 [8208684d] (000/191) No match (V2 was not tested)
19 [33cd75a5] (000/193) No match (V2 was not tested)
20 [b1345b9d] (000/191) No match (V2 was not tested)
21 [17dcb6f5] (000/191) No match (V2 was not tested)
22 [dce8b4b7] (000/190) No match (V2 was not tested)
23 [75056a3f] (000/189) No match (V2 was not tested)
Offsetted by -1573:
01 [cc1942ca] (000/194) No match (V2 was not tested)
02 [ac6166b4] (000/196) No match (V2 was not tested)
03 [de3a2f5f] (000/195) No match (V2 was not tested)
04 [2b078763] (000/192) No match (V2 was not tested)
05 [7bcd3b6e] (000/196) No match (V2 was not tested)
06 [51d9dbbd] (000/195) No match (V2 was not tested)
07 [87b5e5f1] (000/193) No match (V2 was not tested)
08 [f7cd7775] (000/193) No match (V2 was not tested)
09 [9bf40e35] (000/192) No match (V2 was not tested)
10 [30c13c02] (000/193) No match (V2 was not tested)
11 [9a198ec2] (000/194) No match (V2 was not tested)
12 [6728d275] (000/194) No match (V2 was not tested)
13 [30791bc2] (000/194) No match (V2 was not tested)
14 [7afac0ee] (000/192) No match (V2 was not tested)
15 [0a69950b] (000/190) No match (V2 was not tested)
16 [927b234a] (000/194) No match (V2 was not tested)
17 [90984bbd] (000/194) No match (V2 was not tested)
18 [2d17e482] (000/191) No match (V2 was not tested)
19 [5cacf520] (000/193) No match (V2 was not tested)
20 [cf676007] (000/191) No match (V2 was not tested)
21 [70f801e1] (000/191) No match (V2 was not tested)
22 [ba301cd2] (000/190) No match (V2 was not tested)
23 [9e4bef74] (000/189) No match (V2 was not tested)

Track Peak [ CRC32 ] [W/O NULL] [ LOG ]
– 100,0 [2B343E88] [F25C0B66]
01 100,0 [DF33B71B] [3DCEF1BD] CRC32
02 89,9 [040CD34D] [6601C52F] CRC32
03 89,6 [E8B1C5BE] [1D8C755C] CRC32
04 83,7 [DC27694F] [2422A41D] CRC32
05 93,6 [AF074F7B] [44C3C288] CRC32
06 95,5 [1C5B6EDD] [A90A473D] CRC32
07 89,8 [166A5DD7] [6F498FD9] CRC32
08 95,7 [B493B5E6] [4915A3E0] CRC32
09 82,7 [22B9C4A8] [DC03FBFC] CRC32
10 98,7 [07CFCA96] [D2B98624] CRC32
11 100,0 [03D24FD0] [ED9914C7] CRC32
12 91,0 [AD6A04CB] [61550EC1] CRC32
13 88,1 [C3043589] [2075B949] CRC32
14 100,0 [0816B61B] [16001619] CRC32
15 100,0 [40CAAC05] [2455355E] CRC32
16 84,4 [0A0948A9] [E55A9E34] CRC32
17 100,0 [51B1D713] [3A8C90FA] CRC32
18 100,0 [52675EED] [7FB1B8BC] CRC32
19 100,0 [141C1DCF] [A1DEDD84] CRC32
20 90,8 [55E3293C] [D4C3BA11] CRC32
21 100,0 [5F916A39] [9B819BC5] CRC32
22 89,7 [6145DA65] [238C34FD] CRC32
23 100,0 [D5CDD071] [EE64D446] CRC32


The Byrds ‎- The Byrds (1990) [4CD Box Set] Repost

Tracklist CD2 - Cruising Altitude:

1."Mr. Spaceman" (Roger McGuinn) – 2:10 #
2."John Riley" (Bob Gibson, Ricky Neff) – 2:59 #
3."Roll Over Beethoven" [Live] (Chuck Berry) – 2:11 ‡
4."So You Want to Be a Rock 'n' Roll Star" (Chris Hillman, Roger McGuinn) – 2:05
5."Have You Seen Her Face" (Chris Hillman) – 2:43 #
6."My Back Pages" (Bob Dylan) – 3:08
7."Time Between" (Chris Hillman) – 1:54 #
8."It Happens Each Day" (David Crosby) – 2:44 †
9."Renaissance Fair" (David Crosby, Roger McGuinn) – 1:51 #
10."Everybody's Been Burned" (David Crosby) – 3:06 #
11."The Girl With No Name" (Chris Hillman) – 1:49 #
12."Triad" (David Crosby) – 3:29 †
13."Lady Friend" (David Crosby) – 2:35 #
14."Old John Robertson" [Single version] (Chris Hillman, Roger McGuinn) – 1:49
15."Goin' Back" [LP version] (Gerry Goffin, Carole King) – 3:27
16."Draft Morning" (David Crosby, Chris Hillman, Roger McGuinn) – 2:38
17."Wasn't Born to Follow" (Gerry Goffin, Carole King) – 2:02
18."Dolphin's Smile" (David Crosby, Chris Hillman, Roger McGuinn) – 1:59
19."Reputation" (Tim Hardin) – 3:08 ‡
20."You Ain't Goin' Nowhere" (Bob Dylan) – 2:33
21."The Christian Life" (Charlie Louvin, Ira Louvin) – 2:28 ø
22."I Am a Pilgrim" (traditional, arranged Roger McGuinn, Chris Hillman) – 3:37
23."Pretty Boy Floyd" (Woody Guthrie) – 2:34
24."You Don't Miss Your Water" (William Bell) – 3:49 ø

Exact Audio Copy V0.99 prebeta 4 from 23. January 2008

EAC extraction logfile from 23. January 2010, 12:58

Byrds / The Byrds Box Set - Cruising Altitude (disc 2)

Used drive : HL-DT-STDVD-ROM GDR8164B Adapter: 0 ID: 1

Read mode : Secure
Utilize accurate stream : Yes
Defeat audio cache : Yes
Make use of C2 pointers : No

Read offset correction : 102
Overread into Lead-In and Lead-Out : No
Fill up missing offset samples with silence : Yes
Delete leading and trailing silent blocks : No
Null samples used in CRC calculations : Yes
Used interface : Native Win32 interface for Win NT & 2000
Gap handling : Appended to previous track

Used output format : User Defined Encoder
Selected bitrate : 128 kBit/s
Quality : High
Add ID3 tag : No
Command line compressor : C:\Archivos de programa\Exact Audio Copy\Flac\flac.exe
Additional command line options : -8 -V -T "artist=%a" -T "title=%t" -T "album=%g" -T "date=%y" -T "tracknumber=%n" -T "genre=%m" %s


TOC of the extracted CD

Track | Start | Length | Start sector | End sector
––––––––––––––––––––––––––––-
1 | 0:00.00 | 2:12.02 | 0 | 9901
2 | 2:12.02 | 3:01.15 | 9902 | 23491
3 | 5:13.17 | 2:13.30 | 23492 | 33496
4 | 7:26.47 | 2:07.25 | 33497 | 43046
5 | 9:33.72 | 2:44.10 | 43047 | 55356
6 | 12:18.07 | 3:08.23 | 55357 | 69479
7 | 15:26.30 | 1:56.15 | 69480 | 78194
8 | 17:22.45 | 2:46.25 | 78195 | 90669
9 | 20:08.70 | 1:53.37 | 90670 | 99181
10 | 22:02.32 | 3:08.10 | 99182 | 113291
11 | 25:10.42 | 1:50.65 | 113292 | 121606
12 | 27:01.32 | 3:30.70 | 121607 | 137426
13 | 30:32.27 | 2:37.50 | 137427 | 149251
14 | 33:10.02 | 1:52.23 | 149252 | 157674
15 | 35:02.25 | 3:28.27 | 157675 | 173301
16 | 38:30.52 | 2:38.13 | 173302 | 185164
17 | 41:08.65 | 2:04.05 | 185165 | 194469
18 | 43:12.70 | 2:00.45 | 194470 | 203514
19 | 45:13.40 | 3:10.12 | 203515 | 217776
20 | 48:23.52 | 2:35.20 | 217777 | 229421
21 | 50:58.72 | 2:30.13 | 229422 | 240684
22 | 53:29.10 | 3:39.40 | 240685 | 257149
23 | 57:08.50 | 2:35.27 | 257150 | 268801
24 | 59:44.02 | 3:49.63 | 268802 | 286039


Track 1

Filename E:\EAC_RIP_FLAC\01 - Mr. Spaceman.wav

Pre-gap length 0:00:02.00

Peak level 100.0 %
Track quality 100.0 %
Test CRC 5D223F23
Copy CRC 5D223F23
Accurately ripped (confidence 11) [1CC0FEA0]
Copy OK

Track 2

Filename E:\EAC_RIP_FLAC\02 - John Riley.wav

Pre-gap length 0:00:01.80

Peak level 94.8 %
Track quality 100.0 %
Test CRC 4A757171
Copy CRC 4A757171
Accurately ripped (confidence 11) [673F90A5]
Copy OK

Track 3

Filename E:\EAC_RIP_FLAC\03 - Roll Over Beethoven.wav

Pre-gap length 0:00:01.80

Peak level 78.0 %
Track quality 100.0 %
Test CRC 53F2A747
Copy CRC 53F2A747
Accurately ripped (confidence 11) [B794C71F]
Copy OK

Track 4

Filename E:\EAC_RIP_FLAC\04 - So You Want To Be A Rock 'N' Roll Star.wav

Pre-gap length 0:00:01.80

Peak level 91.3 %
Track quality 100.0 %
Test CRC 42D5C349
Copy CRC 42D5C349
Accurately ripped (confidence 11) [934E8E37]
Copy OK

Track 5

Filename E:\EAC_RIP_FLAC\05 - Have You Seen Her Face.wav

Pre-gap length 0:00:01.80

Peak level 96.6 %
Track quality 100.0 %
Test CRC 407A1F53
Copy CRC 407A1F53
Accurately ripped (confidence 11) [8CF1A9F6]
Copy OK

Track 6

Filename E:\EAC_RIP_FLAC\06 - My Back Pages.wav

Pre-gap length 0:00:01.80

Peak level 94.6 %
Track quality 100.0 %
Test CRC AAB5C801
Copy CRC AAB5C801
Accurately ripped (confidence 11) [1F4A6327]
Copy OK

Track 7

Filename E:\EAC_RIP_FLAC\07 - Time Between.wav

Pre-gap length 0:00:01.80

Peak level 92.1 %
Track quality 99.9 %
Test CRC B7F3B261
Copy CRC B7F3B261
Accurately ripped (confidence 11) [4F63771A]
Copy OK

Track 8

Filename E:\EAC_RIP_FLAC\08 - It Happens Each Day.wav

Pre-gap length 0:00:01.80

Peak level 98.1 %
Track quality 100.0 %
Test CRC 8A965A43
Copy CRC 8A965A43
Accurately ripped (confidence 11) [B3B83FAD]
Copy OK

Track 9

Filename E:\EAC_RIP_FLAC\09 - Renaissance Fair.wav

Pre-gap length 0:00:01.80

Peak level 93.5 %
Track quality 100.0 %
Test CRC 5F80E444
Copy CRC 5F80E444
Accurately ripped (confidence 11) [03BC420F]
Copy OK

Track 10

Filename E:\EAC_RIP_FLAC\10 - Everybody's Been Burned.wav

Pre-gap length 0:00:01.80

Peak level 100.0 %
Track quality 100.0 %
Test CRC 096A2D0F
Copy CRC 096A2D0F
Accurately ripped (confidence 11) [FFE8AD9C]
Copy OK

Track 11

Filename E:\EAC_RIP_FLAC\11 - The Girl Wth No Name.wav

Pre-gap length 0:00:01.80

Peak level 93.4 %
Track quality 100.0 %
Test CRC 6FAD0296
Copy CRC 6FAD0296
Accurately ripped (confidence 11) [59FD39E7]
Copy OK

Track 12

Filename E:\EAC_RIP_FLAC\12 - Triad.wav

Pre-gap length 0:00:01.81

Peak level 98.2 %
Track quality 100.0 %
Test CRC 5A14092B
Copy CRC 5A14092B
Accurately ripped (confidence 11) [0488DC2A]
Copy OK

Track 13

Filename E:\EAC_RIP_FLAC\13 - Lady Friend.wav

Pre-gap length 0:00:01.80

Peak level 95.8 %
Track quality 100.0 %
Test CRC 1BD2BFDE
Copy CRC 1BD2BFDE
Accurately ripped (confidence 11) [C39420B8]
Copy OK

Track 14

Filename E:\EAC_RIP_FLAC\14 - Old John Robertson.wav

Pre-gap length 0:00:01.80

Peak level 100.0 %
Track quality 100.0 %
Test CRC C7181EFE
Copy CRC C7181EFE
Accurately ripped (confidence 11) [161B0B00]
Copy OK

Track 15

Filename E:\EAC_RIP_FLAC\15 - Goin' Back.wav

Pre-gap length 0:00:01.80

Peak level 93.5 %
Track quality 100.0 %
Test CRC 52FC994A
Copy CRC 52FC994A
Accurately ripped (confidence 11) [7A5A3E46]
Copy OK

Track 16

Filename E:\EAC_RIP_FLAC\16 - Draft Morning.wav

Pre-gap length 0:00:01.80

Peak level 97.7 %
Track quality 100.0 %
Test CRC 47D3C923
Copy CRC 47D3C923
Accurately ripped (confidence 11) [96000D23]
Copy OK

Track 17

Filename E:\EAC_RIP_FLAC\17 - Wasn't Born To Follow.wav

Peak level 93.3 %
Track quality 100.0 %
Test CRC 3DB98250
Copy CRC 3DB98250
Accurately ripped (confidence 11) [C8973BDC]
Copy OK

Track 18

Filename E:\EAC_RIP_FLAC\18 - Dolphin's Smile.wav

Pre-gap length 0:00:01.80

Peak level 100.0 %
Track quality 100.0 %
Test CRC E4E0C5E2
Copy CRC E4E0C5E2
Accurately ripped (confidence 11) [459EA4ED]
Copy OK

Track 19

Filename E:\EAC_RIP_FLAC\19 - Reputation.wav

Pre-gap length 0:00:01.80

Peak level 98.7 %
Track quality 100.0 %
Test CRC F697F13C
Copy CRC F697F13C
Accurately ripped (confidence 11) [C93CB718]
Copy OK

Track 20

Filename E:\EAC_RIP_FLAC\20 - You Ain't Going Nowhere.wav

Pre-gap length 0:00:01.80

Peak level 100.0 %
Track quality 100.0 %
Test CRC A8427BFB
Copy CRC A8427BFB
Accurately ripped (confidence 11) [0249A818]
Copy OK

Track 21

Filename E:\EAC_RIP_FLAC\21 - The Christian Life.wav

Pre-gap length 0:00:01.80

Peak level 94.6 %
Track quality 100.0 %
Test CRC 5E7FE118
Copy CRC 5E7FE118
Accurately ripped (confidence 11) [24224762]
Copy OK

Track 22

Filename E:\EAC_RIP_FLAC\22 - I Am A Pilgrim.wav

Pre-gap length 0:00:01.80

Peak level 84.2 %
Track quality 100.0 %
Test CRC D0F76748
Copy CRC D0F76748
Accurately ripped (confidence 11) [3CC0CB1D]
Copy OK

Track 23

Filename E:\EAC_RIP_FLAC\23 - Pretty Boy Floyd.wav

Pre-gap length 0:00:01.80

Peak level 88.4 %
Track quality 100.0 %
Test CRC 37BB28FE
Copy CRC 37BB28FE
Accurately ripped (confidence 11) [30FB0013]
Copy OK

Track 24

Filename E:\EAC_RIP_FLAC\24 - You Don't Miss Your Water.wav

Pre-gap length 0:00:01.80

Peak level 98.7 %
Track quality 100.0 %
Test CRC C42D5993
Copy CRC C42D5993
Accurately ripped (confidence 11) [A1653015]
Copy OK


All tracks accurately ripped

No errors occurred

End of status report


[CUETools log; Date: 08.10.2018 3:40:55; Version: 2.1.4]
[AccurateRip ID: 00347743-03922c00-230ee518] found.
Track [ CRC | V2 ] Status
01 [1cc0fea0|64f791b3] (021+030/189) Accurately ripped
02 [673f90a5|2b5a78bc] (022+029/185) Accurately ripped
03 [b794c71f|481e77cc] (022+029/185) Accurately ripped
04 [934e8e37|8e5674a2] (022+030/191) Accurately ripped
05 [8cf1a9f6|b8f13fac] (022+031/190) Accurately ripped
06 [1f4a6327|d33c9135] (022+032/193) Accurately ripped
07 [4f63771a|18d5afc9] (021+030/188) Accurately ripped
08 [b3b83fad|37d18f2a] (022+029/185) Accurately ripped
09 [03bc420f|1dbf5ac7] (022+029/187) Accurately ripped
10 [ffe8ad9c|1ada98bf] (022+029/188) Accurately ripped
11 [59fd39e7|7270c062] (022+029/189) Accurately ripped
12 [0488dc2a|5e5e87a0] (022+029/184) Accurately ripped
13 [c39420b8|dbd78abc] (022+030/187) Accurately ripped
14 [161b0b00|54f4d392] (022+029/186) Accurately ripped
15 [7a5a3e46|e9986d9b] (022+031/189) Accurately ripped
16 [96000d23|507aff0d] (022+030/189) Accurately ripped
17 [c8973bdc|d65d2127] (022+031/192) Accurately ripped
18 [459ea4ed|70d46e7b] (022+029/186) Accurately ripped
19 [c93cb718|47552dc2] (022+029/187) Accurately ripped
20 [0249a818|cccfc8b5] (022+030/191) Accurately ripped
21 [24224762|e450ba53] (022+029/186) Accurately ripped
22 [3cc0cb1d|c8e11be8] (022+029/186) Accurately ripped
23 [30fb0013|6ab104e0] (022+029/186) Accurately ripped
24 [a1653015|d0e04f8e] (022+029/186) Accurately ripped
Offsetted by -767:
01 [a703b503] (006/189) Accurately ripped
02 [ac8fb4e7] (006/185) Accurately ripped
03 [9c98042a] (005/185) Accurately ripped
04 [ddc6ab8b] (006/191) Accurately ripped
05 [6ca46448] (006/190) Accurately ripped
06 [1f26ed24] (006/193) Accurately ripped
07 [368352dc] (006/188) Accurately ripped
08 [ab35aeee] (005/185) Accurately ripped
09 [bf3a9816] (006/187) Accurately ripped
10 [81e70c37] (006/188) Accurately ripped
11 [4320ea38] (006/189) Accurately ripped
12 [d039304e] (005/184) Accurately ripped
13 [c3cd5703] (006/187) Accurately ripped
14 [97c6e356] (006/186) Accurately ripped
15 [358f8e89] (006/189) Accurately ripped
16 [79710fe0] (006/189) Accurately ripped
17 [65048f6d] (006/192) Accurately ripped
18 [cf50b666] (006/186) Accurately ripped
19 [fdeaa3ce] (005/187) Accurately ripped
20 [4c1d513d] (006/191) Accurately ripped
21 [1e5c6bd6] (005/186) Accurately ripped
22 [5fcf61fd] (005/186) Accurately ripped
23 [a932c80c] (005/186) Accurately ripped
24 [7c8f48d6] (005/186) Accurately ripped
Offsetted by -639:
01 [17736683] (003/189) Accurately ripped
02 [b404d5e7] (003/185) Accurately ripped
03 [2b4709aa] (003/185) Accurately ripped
04 [3fd3558b] (003/191) Accurately ripped
05 [ce7c8d48] (003/190) Accurately ripped
06 [4ee76ba4] (003/193) Accurately ripped
07 [791433dc] (003/188) Accurately ripped
08 [b54ecf6e] (003/185) Accurately ripped
09 [9ef01b96] (003/187) Accurately ripped
10 [487ed9b7] (003/188) Accurately ripped
11 [49f292b8] (003/189) Accurately ripped
12 [c899424e] (003/184) Accurately ripped
13 [8358fc83] (003/187) Accurately ripped
14 [b5340e56] (003/186) Accurately ripped
15 [761c3009] (003/189) Accurately ripped
16 [a3d99911] (003/189) Accurately ripped
17 [ba67c954] (003/192) Accurately ripped
18 [e30ef2e6] (003/186) Accurately ripped
19 [6af15f0e] (003/187) Accurately ripped
20 [5a2a037d] (003/191) Accurately ripped
21 [7c1ca5d6] (003/186) Accurately ripped
22 [b96ad1fd] (003/186) Accurately ripped
23 [d18c448c] (003/186) Accurately ripped
24 [1b3d2956] (003/186) Accurately ripped
Offsetted by -221:
01 [5ea02629] (026/189) Accurately ripped
02 [f05f55ab] (023/185) Accurately ripped
03 [f53a97a0] (024/185) Accurately ripped
04 [6c04b0b3] (026/191) Accurately ripped
05 [a202732c] (025/190) Accurately ripped
06 [e6d808be] (026/193) Accurately ripped
07 [fe7552a0] (025/188) Accurately ripped
08 [be48dd90] (024/185) Accurately ripped
09 [697cdd04] (025/187) Accurately ripped
10 [210694cd] (025/188) Accurately ripped
11 [c4373cfa] (025/189) Accurately ripped
12 [abb2fd16] (023/184) Accurately ripped
13 [6cdd04f9] (024/187) Accurately ripped
14 [b94c8ec2] (024/186) Accurately ripped
15 [84e76f6f] (025/189) Accurately ripped
16 [c72f4504] (025/189) Accurately ripped
17 [e7343a09] (026/192) Accurately ripped
18 [23883078] (023/186) Accurately ripped
19 [92fd184d] (024/187) Accurately ripped
20 [8409bbd4] (025/191) Accurately ripped
21 [8644633e] (023/186) Accurately ripped
22 [d60a6bbd] (024/186) Accurately ripped
23 [69507f1e] (024/186) Accurately ripped
24 [856cfa78] (024/186) Accurately ripped
Offsetted by 133:
01 [6d950d0f] (022/189) Accurately ripped
02 [a8ff44ef] (022/185) Accurately ripped
03 [77d6a2d6] (022/185) Accurately ripped
04 [e72fb6db] (022/191) Accurately ripped
05 [c49c4490] (022/190) Accurately ripped
06 [e6e86698] (022/193) Accurately ripped
07 [e28e00e4] (022/188) Accurately ripped
08 [c2365b72] (022/185) Accurately ripped
09 [c42edcb2] (022/187) Accurately ripped
10 [96426923] (022/188) Accurately ripped
11 [bb1312fc] (023/189) Accurately ripped
12 [129caede] (022/184) Accurately ripped
13 [f69b3aaf] (022/187) Accurately ripped
14 [2eae79ae] (022/186) Accurately ripped
15 [f36c5e15] (022/189) Accurately ripped
16 [43408cfa] (022/189) Accurately ripped
17 [166bad83] (022/192) Accurately ripped
18 [5a224fca] (022/186) Accurately ripped
19 [04874570] (022/187) Accurately ripped
20 [26e14987] (023/191) Accurately ripped
21 [618c03a6] (022/186) Accurately ripped
22 [c5dc4d7d] (021/186) Accurately ripped
23 [6ce7fb70] (021/186) Accurately ripped
24 [2045db5a] (021/186) Accurately ripped

Track Peak [ CRC32 ] [W/O NULL] [ LOG ]
– 100,0 [299C299B] [B06D19B8]
01 100,0 [5D223F23] [3B8956C5] CRC32
02 94,8 [4A757171] [09496222] CRC32
03 78,0 [53F2A747] [73578CF9] CRC32
04 91,3 [42D5C349] [235957F9] CRC32
05 96,6 [407A1F53] [F979100D] CRC32
06 94,6 [AAB5C801] [590DAC88] CRC32
07 92,1 [B7F3B261] [10B261E0] CRC32
08 98,1 [8A965A43] [85071A60] CRC32
09 93,5 [5F80E444] [DCE43588] CRC32
10 100,0 [096A2D0F] [6425AD90] CRC32
11 93,4 [6FAD0296] [80C1E65C] CRC32
12 98,2 [5A14092B] [F6FD256B] CRC32
13 95,8 [1BD2BFDE] [6C19284F] CRC32
14 100,0 [C7181EFE] [80C6F88E] CRC32
15 93,5 [52FC994A] [0E8AA471] CRC32
16 97,7 [47D3C923] [30D41312] CRC32
17 93,3 [3DB98250] [95EFAB59] CRC32
18 100,0 [E4E0C5E2] [FCB9A117] CRC32
19 98,7 [F697F13C] [71879E39] CRC32
20 100,0 [A8427BFB] [75E598FB] CRC32
21 94,6 [5E7FE118] [2A08C3D8] CRC32
22 84,2 [D0F76748] [27EBD984] CRC32
23 88,4 [37BB28FE] [E039539E] CRC32
24 98,7 [C42D5993] [54AE09B1] CRC32


The Byrds ‎- The Byrds (1990) [4CD Box Set] Repost

Tracklist CD3 - Full Throttle:

1."Hickory Wind" (Gram Parsons, Bob Buchanan) – 3:29
2."Nothing Was Delivered" (Bob Dylan) – 3:22
3."One Hundred Years from Now" (Gram Parsons) – 2:56 ø
4."Pretty Polly" (traditional, arranged Chris Hillman, Roger McGuinn) – 2:53 ‡
5."Lazy Days" (Gram Parsons) – 3:27 ‡
6."This Wheel's on Fire" (Bob Dylan, Rick Danko) – 4:40 #
7."Nashville West" (Gene Parsons, Clarence White) – 2:28
8."Old Blue" (traditional, arranged Roger McGuinn) – 3:21
9."Drug Store Truck Drivin' Man" (Roger McGuinn, Gram Parsons) – 3:53
10."Bad Night at the Whiskey" (Roger McGuinn, Joseph Richards) – 3:20
11."Lay Lady Lay" (Bob Dylan) – 3:16 ø
12."Mae Jean Goes to Hollywood" (Jackson Browne) – 2:43 ‡
13."Ballad of Easy Rider" (Roger McGuinn, Bob Dylan) – 2:02
NOTE: Bob Dylan is not officially credited as a songwriter on "Ballad of Easy Rider".
14."Oil in My Lamp" (traditional, arranged Gene Parsons, Clarence White) – 2:02 ø
15."Jesus Is Just Alright" (Arthur Reynolds) – 2:08
16."Way Beyond the Sun" (traditional, arranged Roger McGuinn) – 2:56 ‡
17."Tulsa County" [aka "Tulsa County Blue"] (Pamela Polland) – 2:46
18."Deportee (Plane Wreck at Los Gatos)" (Woody Guthrie, Martin Hoffman) – 3:50
19."Lover of the Bayou" [Live] (Roger McGuinn, Jacques Levy) – 4:24 ø
20."Willin'" [Live] (Lowell George) – 3:13 ‡
21."Black Mountain Rag" [Live] (Byron Berline/arranged Clarence White, Roger McGuinn) – 1:12 ‡
22."Positively 4th Street" [Live] (Bob Dylan) – 3:04

Exact Audio Copy V0.99 prebeta 4 from 23. January 2008

EAC extraction logfile from 23. January 2010, 13:27

Byrds / The Byrds [Box Set] - (CD 3) Full Throttle

Used drive : HL-DT-STDVD-ROM GDR8164B Adapter: 0 ID: 1

Read mode : Secure
Utilize accurate stream : Yes
Defeat audio cache : Yes
Make use of C2 pointers : No

Read offset correction : 102
Overread into Lead-In and Lead-Out : No
Fill up missing offset samples with silence : Yes
Delete leading and trailing silent blocks : No
Null samples used in CRC calculations : Yes
Used interface : Native Win32 interface for Win NT & 2000
Gap handling : Appended to previous track

Used output format : User Defined Encoder
Selected bitrate : 128 kBit/s
Quality : High
Add ID3 tag : No
Command line compressor : C:\Archivos de programa\Exact Audio Copy\Flac\flac.exe
Additional command line options : -8 -V -T "artist=%a" -T "title=%t" -T "album=%g" -T "date=%y" -T "tracknumber=%n" -T "genre=%m" %s


TOC of the extracted CD

Track | Start | Length | Start sector | End sector
––––––––––––––––––––––––––––-
1 | 0:00.00 | 3:32.02 | 0 | 15901
2 | 3:32.02 | 3:23.73 | 15902 | 31199
3 | 6:56.00 | 2:57.40 | 31200 | 44514
4 | 9:53.40 | 2:55.15 | 44515 | 57654
5 | 12:48.55 | 3:28.35 | 57655 | 73289
6 | 16:17.15 | 4:42.32 | 73290 | 94471
7 | 20:59.47 | 2:30.30 | 94472 | 105751
8 | 23:30.02 | 3:23.33 | 105752 | 121009
9 | 26:53.35 | 3:54.00 | 121010 | 138559
10 | 30:47.35 | 3:22.60 | 138560 | 153769
11 | 34:10.20 | 3:18.47 | 153770 | 168666
12 | 37:28.67 | 2:45.18 | 168667 | 181059
13 | 40:14.10 | 2:03.57 | 181060 | 190341
14 | 42:17.67 | 2:03.35 | 190342 | 199601
15 | 44:21.27 | 2:10.48 | 199602 | 209399
16 | 46:32.00 | 2:57.30 | 209400 | 222704
17 | 49:29.30 | 2:48.60 | 222705 | 235364
18 | 52:18.15 | 3:50.55 | 235365 | 252669
19 | 56:08.70 | 4:24.70 | 252670 | 272539
20 | 60:33.65 | 3:13.27 | 272540 | 287041
21 | 63:47.17 | 1:14.20 | 287042 | 292611
22 | 65:01.37 | 3:05.25 | 292612 | 306511


Track 1

Filename E:\EAC_RIP_FLAC\01 - Hickory Wind.wav

Pre-gap length 0:00:02.00

Peak level 98.8 %
Track quality 100.0 %
Test CRC 9BDFE2FA
Copy CRC 9BDFE2FA
Accurately ripped (confidence 11) [42F7E7E4]
Copy OK

Track 2

Filename E:\EAC_RIP_FLAC\02 - Nothing Was Delivered.wav

Pre-gap length 0:00:01.86

Peak level 100.0 %
Track quality 100.0 %
Test CRC 34D3A689
Copy CRC 34D3A689
Accurately ripped (confidence 11) [B92F6558]
Copy OK

Track 3

Filename E:\EAC_RIP_FLAC\03 - One Hundred Years From Now.wav

Pre-gap length 0:00:01.97

Peak level 100.0 %
Track quality 100.0 %
Test CRC 5317EBE6
Copy CRC 5317EBE6
Accurately ripped (confidence 11) [1B6BFB1B]
Copy OK

Track 4

Filename E:\EAC_RIP_FLAC\04 - Pretty Polly.wav

Pre-gap length 0:00:01.20

Peak level 87.4 %
Track quality 100.0 %
Test CRC B0C0D94A
Copy CRC B0C0D94A
Accurately ripped (confidence 11) [81EF12B6]
Copy OK

Track 5

Filename E:\EAC_RIP_FLAC\05 - Lazy Days.wav

Pre-gap length 0:00:01.80

Peak level 87.7 %
Track quality 100.0 %
Test CRC 6079F04E
Copy CRC 6079F04E
Accurately ripped (confidence 11) [A95EC604]
Copy OK

Track 6

Filename E:\EAC_RIP_FLAC\06 - This Wheel's On Fire.wav

Pre-gap length 0:00:01.80

Peak level 97.7 %
Track quality 100.0 %
Test CRC 2983CD98
Copy CRC 2983CD98
Accurately ripped (confidence 11) [BB04B9CE]
Copy OK

Track 7

Filename E:\EAC_RIP_FLAC\07 - Nashville West.wav

Pre-gap length 0:00:02.00

Peak level 100.0 %
Track quality 99.9 %
Test CRC E75BC3FD
Copy CRC E75BC3FD
Accurately ripped (confidence 11) [2D2F8353]
Copy OK

Track 8

Filename E:\EAC_RIP_FLAC\08 - Old Blue.wav

Pre-gap length 0:00:01.80

Peak level 100.0 %
Track quality 100.0 %
Test CRC 02A15CA1
Copy CRC 02A15CA1
Accurately ripped (confidence 11) [0A07E08F]
Copy OK

Track 9

Filename E:\EAC_RIP_FLAC\09 - Drug Store Truck Drivin' Man.wav

Pre-gap length 0:00:01.66

Peak level 88.7 %
Track quality 100.0 %
Test CRC 4A53791C
Copy CRC 4A53791C
Accurately ripped (confidence 11) [C3E43DF7]
Copy OK

Track 10

Filename E:\EAC_RIP_FLAC\10 - Bad Night At The Whiskey.wav

Pre-gap length 0:00:01.77

Peak level 91.4 %
Track quality 100.0 %
Test CRC 2EF42B52
Copy CRC 2EF42B52
Accurately ripped (confidence 11) [687D042C]
Copy OK

Track 11

Filename E:\EAC_RIP_FLAC\11 - Lay Lady Lay.wav

Pre-gap length 0:00:01.80

Peak level 90.4 %
Track quality 100.0 %
Test CRC 4D655FDE
Copy CRC 4D655FDE
Accurately ripped (confidence 11) [97FC57BA]
Copy OK

Track 12

Filename E:\EAC_RIP_FLAC\12 - Mae Jean Goes To Hollywood.wav

Pre-gap length 0:00:01.69

Peak level 86.9 %
Track quality 100.0 %
Test CRC 865FA851
Copy CRC 865FA851
Accurately ripped (confidence 11) [3879B053]
Copy OK

Track 13

Filename E:\EAC_RIP_FLAC\13 - Ballad of Easy Rider.wav

Pre-gap length 0:00:01.80

Peak level 84.2 %
Track quality 100.0 %
Test CRC E799CB15
Copy CRC E799CB15
Accurately ripped (confidence 11) [75D2A3F0]
Copy OK

Track 14

Filename E:\EAC_RIP_FLAC\14 - Oil In My Lamp.wav

Pre-gap length 0:00:01.80

Peak level 81.5 %
Track quality 100.0 %
Test CRC 265164B7
Copy CRC 265164B7
Accurately ripped (confidence 11) [BE9D9F7B]
Copy OK

Track 15

Filename E:\EAC_RIP_FLAC\15 - Jesus is Just Alright.wav

Pre-gap length 0:00:01.80

Peak level 87.2 %
Track quality 100.0 %
Test CRC 80A00D6F
Copy CRC 80A00D6F
Accurately ripped (confidence 11) [09E8CAF9]
Copy OK

Track 16

Filename E:\EAC_RIP_FLAC\16 - Way Beyond The Sun.wav

Pre-gap length 0:00:01.77

Peak level 100.0 %
Track quality 100.0 %
Test CRC D176E256
Copy CRC D176E256
Accurately ripped (confidence 11) [45E11062]
Copy OK

Track 17

Filename E:\EAC_RIP_FLAC\17 - Tulsa County.wav

Pre-gap length 0:00:02.06

Peak level 94.0 %
Track quality 100.0 %
Test CRC ABFE4FC4
Copy CRC ABFE4FC4
Accurately ripped (confidence 11) [0BBB19F6]
Copy OK

Track 18

Filename E:\EAC_RIP_FLAC\18 - Deportee (Plane Wreck At Los Gatos).wav

Pre-gap length 0:00:01.53

Peak level 90.6 %
Track quality 100.0 %
Test CRC 2945CDBD
Copy CRC 2945CDBD
Accurately ripped (confidence 11) [7931733F]
Copy OK

Track 19

Filename E:\EAC_RIP_FLAC\19 - Lover Of The Bayou.wav

Pre-gap length 0:00:01.73

Peak level 86.9 %
Track quality 100.0 %
Test CRC 9FA72981
Copy CRC 9FA72981
Accurately ripped (confidence 11) [5C879942]
Copy OK

Track 20

Filename E:\EAC_RIP_FLAC\20 - Willin'.wav

Peak level 99.4 %
Track quality 100.0 %
Test CRC 844E07F6
Copy CRC 844E07F6
Accurately ripped (confidence 11) [21005B94]
Copy OK

Track 21

Filename E:\EAC_RIP_FLAC\21 - Black Mountain Rag.wav

Peak level 96.6 %
Track quality 100.0 %
Test CRC 2668A19C
Copy CRC 2668A19C
Accurately ripped (confidence 11) [5E135640]
Copy OK

Track 22

Filename E:\EAC_RIP_FLAC\22 - Positively 4th Street.wav

Pre-gap length 0:00:01.76

Peak level 91.1 %
Track quality 100.0 %
Test CRC 8D77815D
Copy CRC 8D77815D
Accurately ripped (confidence 10) [595991F4]
Copy OK


All tracks accurately ripped

No errors occurred

End of status report


[CUETools log; Date: 08.10.2018 3:44:42; Version: 2.1.4]
[AccurateRip ID: 0037c3f3-03733251-3d0ff616] found.
Track [ CRC | V2 ] Status
01 [42f7e7e4|6146791f] (022+031/174) Accurately ripped
02 [b92f6558|6fb0a0d6] (022+032/175) Accurately ripped
03 [1b6bfb1b|0318a5dc] (022+031/176) Accurately ripped
04 [81ef12b6|1f302050] (022+031/175) Accurately ripped
05 [a95ec604|390d624f] (022+031/175) Accurately ripped
06 [bb04b9ce|ada654f1] (022+032/178) Accurately ripped
07 [2d2f8353|c9ce84ad] (022+031/176) Accurately ripped
08 [0a07e08f|ef28bcbb] (022+031/176) Accurately ripped
09 [c3e43df7|59328b5b] (022+031/175) Accurately ripped
10 [687d042c|e3526465] (022+031/175) Accurately ripped
11 [97fc57ba|d0f3ccf4] (022+032/176) Accurately ripped
12 [3879b053|f9ebe6c9] (022+031/176) Accurately ripped
13 [75d2a3f0|8cb766e1] (022+032/183) Accurately ripped
14 [be9d9f7b|a9e3c0a1] (022+031/176) Accurately ripped
15 [09e8caf9|b364d0c4] (022+032/179) Accurately ripped
16 [45e11062|f43b8f5d] (022+031/176) Accurately ripped
17 [0bbb19f6|740a2ddc] (022+031/176) Accurately ripped
18 [7931733f|9706c9f3] (022+031/176) Accurately ripped
19 [5c879942|497cfdfb] (022+031/176) Accurately ripped
20 [21005b94|a0fe10da] (022+031/175) Accurately ripped
21 [5e135640|2ba6790e] (022+031/174) Accurately ripped
22 [595991f4|596e4309] (020+032/176) Accurately ripped
Offsetted by 206:
01 [b48f7cc0] (010/174) Accurately ripped
02 [a0deba7c] (010/175) Accurately ripped
03 [92422eb3] (010/176) Accurately ripped
04 [a695febc] (010/175) Accurately ripped
05 [f24c160a] (010/175) Accurately ripped
06 [7076678a] (011/178) Accurately ripped
07 [50cd3133] (010/176) Accurately ripped
08 [21de10b1] (010/176) Accurately ripped
09 [ecbf0dc3] (010/175) Accurately ripped
10 [ce560664] (010/175) Accurately ripped
11 [e0a7c92e] (011/176) Accurately ripped
12 [bcc10d15] (010/176) Accurately ripped
13 [6c0beb32] (011/183) Accurately ripped
14 [d2442903] (010/176) Accurately ripped
15 [5f954135] (010/179) Accurately ripped
16 [5aa5295e] (010/176) Accurately ripped
17 [16cb0a3e] (010/176) Accurately ripped
18 [0e6c07d7] (010/176) Accurately ripped
19 [dfdc4416] (010/176) Accurately ripped
20 [7bd94d8f] (010/175) Accurately ripped
21 [fe4b7acd] (010/174) Accurately ripped
22 [a52e59d4] (010/176) Accurately ripped
Offsetted by 284:
01 [f374609c] (021/174) Accurately ripped
02 [c95f40a0] (021/175) Accurately ripped
03 [47f4384b] (021/176) Accurately ripped
04 [ff06e842] (021/175) Accurately ripped
05 [51046390] (021/175) Accurately ripped
06 [5bb05c46] (021/178) Accurately ripped
07 [113d1713] (021/176) Accurately ripped
08 [48b7dd53] (021/176) Accurately ripped
09 [ead1488f] (021/175) Accurately ripped
10 [0b44c69c] (021/175) Accurately ripped
11 [03a09fa2] (020/176) Accurately ripped
12 [4d496e57] (021/176) Accurately ripped
13 [51f9d6f4] (023/183) Accurately ripped
14 [b965648b] (021/176) Accurately ripped
15 [c3211e71] (021/179) Accurately ripped
16 [a0a4d95a] (021/176) Accurately ripped
17 [3b4adc86] (021/176) Accurately ripped
18 [8c84b26f] (021/176) Accurately ripped
19 [11e9b088] (022/176) Accurately ripped
20 [44535708] (020/175) Accurately ripped
21 [1d888df6] (020/174) Accurately ripped
22 [6fdfd9b4] (021/176) Accurately ripped
Offsetted by 333:
01 [f6dcc85e] (015/174) Accurately ripped
02 [488f2bde] (015/175) Accurately ripped
03 [f1e4105f] (015/176) Accurately ripped
04 [0f339537] (015/175) Accurately ripped
05 [02acae85] (015/175) Accurately ripped
06 [3119b118] (015/178) Accurately ripped
07 [45349da3] (015/176) Accurately ripped
08 [eaf87b6a] (015/176) Accurately ripped
09 [d9321199] (015/175) Accurately ripped
10 [58ee73e0] (013/175) Accurately ripped
11 [7c0efef8] (014/176) Accurately ripped
12 [5c988a9e] (015/176) Accurately ripped
13 [1a36affb] (015/183) Accurately ripped
14 [54706c67] (015/176) Accurately ripped
15 [77d19903] (015/179) Accurately ripped
16 [abcc098c] (015/176) Accurately ripped
17 [a78e0802] (015/176) Accurately ripped
18 [9d5fae03] (015/176) Accurately ripped
19 [0f6eae21] (014/176) Accurately ripped
20 [03c590e4] (015/175) Accurately ripped
21 [db512b9f] (014/174) Accurately ripped
22 [134f5b44] (015/176) Accurately ripped
Offsetted by -525:
01 [4306fdea] (000/174) No match (V2 was not tested)
02 [8b096852] (000/175) No match (V2 was not tested)
03 [233da6d7] (000/176) No match (V2 was not tested)
04 [42598c75] (000/175) No match (V2 was not tested)
05 [f0c159c3] (000/175) No match (V2 was not tested)
06 [159c2d04] (000/178) No match (V2 was not tested)
07 [0065bd03] (000/176) No match (V2 was not tested)
08 [3f9cb074] (000/176) No match (V2 was not tested)
09 [ee698ad5] (000/175) No match (V2 was not tested)
10 [baac3178] (000/175) No match (V2 was not tested)
11 [fb5dc7fc] (000/176) No match (V2 was not tested)
12 [26bc5cc8] (000/176) No match (V2 was not tested)
13 [38fd8ea5] (002/183) Accurately ripped
14 [6602dd8f] (000/176) No match (V2 was not tested)
15 [30cf176f] (002/179) Accurately ripped
16 [a9cf79b8] (000/176) No match (V2 was not tested)
17 [160ffeea] (000/176) No match (V2 was not tested)
18 [3250597b] (000/176) No match (V2 was not tested)
19 [4a91d329] (000/176) No match (V2 was not tested)
20 [56512aac] (000/175) No match (V2 was not tested)
21 [14868aab] (000/174) No match (V2 was not tested)
22 [5daedca4] (000/176) No match (V2 was not tested)

Track Peak [ CRC32 ] [W/O NULL] [ LOG ]
– 100,0 [61CCC49A] [522ED2C6]
01 98,8 [9BDFE2FA] [DF00182A] CRC32
02 100,0 [34D3A689] [BCBC37B8] CRC32
03 100,0 [5317EBE6] [331C258C] CRC32
04 87,4 [B0C0D94A] [8DBE70F4] CRC32
05 87,7 [6079F04E] [F3F39CB4] CRC32
06 97,7 [2983CD98] [474F1FA9] CRC32
07 100,0 [E75BC3FD] [D796A792] CRC32
08 100,0 [02A15CA1] [DBC77849] CRC32
09 88,7 [4A53791C] [F52620B9] CRC32
10 91,4 [2EF42B52] [7564E45B] CRC32
11 90,4 [4D655FDE] [C8E2AE55] CRC32
12 86,9 [865FA851] [22E8F3CB] CRC32
13 84,2 [E799CB15] [16FA2D9E] CRC32
14 81,5 [265164B7] [1502D684] CRC32
15 87,2 [80A00D6F] [2FF6B7B7] CRC32
16 100,0 [D176E256] [05998810] CRC32
17 94,0 [ABFE4FC4] [D12238F4] CRC32
18 90,6 [2945CDBD] [1A6775B0] CRC32
19 86,9 [9FA72981] [FE4C484E] CRC32
20 99,4 [844E07F6] [DF5F2E8C] CRC32
21 96,6 [2668A19C] [1B780DE1] CRC32
22 91,1 [8D77815D] [9D018F88] CRC32


The Byrds ‎- The Byrds (1990) [4CD Box Set] Repost

Tracklist CD4 - Final Approach:

1."Chestnut Mare" (Roger McGuinn, Jacques Levy) – 5:07
2."Just a Season" (Roger McGuinn, Jacques Levy) – 3:49 #
3."Kathleen's Song" (Roger McGuinn, Jacques Levy) – 2:35 ø
4."Truck Stop Girl" (Lowell George, Bill Payne) – 3:20
5."Just Like a Woman" (Bob Dylan) – 3:58 ‡
6."Stanley's Song" (Roger McGuinn, Robert J. Hippard) – 3:11 ‡
7."Glory, Glory" (Arthur Reynolds) – 4:00
8."I Trust" (Roger McGuinn) – 3:17
9."I Wanna Grow Up to Be a Politician" (Roger McGuinn, Jacques Levy) – 2:01
10."Green Apple Quick Step" (Gene Parsons, Clarence White) – 1:47
11."Tiffany Queen" (Roger McGuinn) – 2:41
12."Bugler" (Larry Murray) – 3:05
13."Lazy Waters" (Bob Rafkin) – 3:32
14."Farther Along" (traditional, arranged Clarence White) – 2:57
15."White's Lightning" (Roger McGuinn, Clarence White) – 2:36 ‡
16."Turn! Turn! Turn! (to Everything There Is a Season)" [Live] (Book of Ecclesiastes/Pete Seeger) – 3:51 ø
Recorded live at the Roy Orbison Tribute Concert on February 24, 1990.
17."Mr. Tambourine Man" [Live] (Bob Dylan) – 5:26 ø
Recorded live at the Roy Orbison Tribute Concert on February 24, 1990.
18."He Was a Friend of Mine" (traditional, new words and arrangement Roger McGuinn) – 2:26 ø
19."Paths of Victory" (Bob Dylan) – 3:09 ‡
20."From a Distance" (Julie Gold) – 3:14 ‡
21."Love That Never Dies" (Roger McGuinn, Stan Lynch) – 3:54 ‡
The above four tracks were recorded by a reunited line-up of The Byrds at Treasure Isle Recorders, Nashville, Tennessee, between August 6 and August 8, 1990.

Exact Audio Copy V0.99 prebeta 4 from 23. January 2008

EAC extraction logfile from 23. January 2010, 14:07

Byrds / The Byrds Box Set - Final Approach (disc 4)

Used drive : HL-DT-STDVD-ROM GDR8164B Adapter: 0 ID: 1

Read mode : Secure
Utilize accurate stream : Yes
Defeat audio cache : Yes
Make use of C2 pointers : No

Read offset correction : 102
Overread into Lead-In and Lead-Out : No
Fill up missing offset samples with silence : Yes
Delete leading and trailing silent blocks : No
Null samples used in CRC calculations : Yes
Used interface : Native Win32 interface for Win NT & 2000
Gap handling : Appended to previous track

Used output format : User Defined Encoder
Selected bitrate : 128 kBit/s
Quality : High
Add ID3 tag : No
Command line compressor : C:\Archivos de programa\Exact Audio Copy\Flac\flac.exe
Additional command line options : -8 -V -T "artist=%a" -T "title=%t" -T "album=%g" -T "date=%y" -T "tracknumber=%n" -T "genre=%m" %s


TOC of the extracted CD

Track | Start | Length | Start sector | End sector
––––––––––––––––––––––––––––-
1 | 0:00.00 | 5:08.50 | 0 | 23149
2 | 5:08.50 | 3:51.35 | 23150 | 40509
3 | 9:00.10 | 2:37.30 | 40510 | 52314
4 | 11:37.40 | 3:21.05 | 52315 | 67394
5 | 14:58.45 | 4:00.10 | 67395 | 85404
6 | 18:58.55 | 3:13.22 | 85405 | 99901
7 | 22:12.02 | 4:01.73 | 99902 | 118049
8 | 26:14.00 | 3:19.47 | 118050 | 133021
9 | 29:33.47 | 2:03.28 | 133022 | 142274
10 | 31:37.00 | 1:48.40 | 142275 | 150414
11 | 33:25.40 | 2:42.47 | 150415 | 162611
12 | 36:08.12 | 3:07.08 | 162612 | 176644
13 | 39:15.20 | 3:33.70 | 176645 | 192689
14 | 42:49.15 | 2:59.05 | 192690 | 206119
15 | 45:48.20 | 2:37.15 | 206120 | 217909
16 | 48:25.35 | 3:53.45 | 217910 | 235429
17 | 52:19.05 | 5:27.60 | 235430 | 260014
18 | 57:46.65 | 2:28.17 | 260015 | 271131
19 | 60:15.07 | 3:11.40 | 271132 | 285496
20 | 63:26.47 | 3:15.03 | 285497 | 300124
21 | 66:41.50 | 3:55.20 | 300125 | 317769


Track 1

Filename E:\EAC_RIP_FLAC\01 - Chestnut Mare.wav

Pre-gap length 0:00:02.00

Peak level 100.0 %
Track quality 100.0 %
Test CRC D1FFFC49
Copy CRC D1FFFC49
Accurately ripped (confidence 45) [D31CE086]
Copy OK

Track 2

Filename E:\EAC_RIP_FLAC\02 - Just a Season.wav

Pre-gap length 0:00:01.80

Peak level 93.3 %
Track quality 100.0 %
Test CRC 16C8FCC5
Copy CRC 16C8FCC5
Accurately ripped (confidence 43) [54AB0CE6]
Copy OK

Track 3

Filename E:\EAC_RIP_FLAC\03 - Kathleen's Song.wav

Pre-gap length 0:00:01.80

Peak level 77.4 %
Track quality 99.9 %
Test CRC 8503D931
Copy CRC 8503D931
Accurately ripped (confidence 44) [C55CFCD0]
Copy OK

Track 4

Filename E:\EAC_RIP_FLAC\04 - Truck Stop Girl.wav

Pre-gap length 0:00:01.81

Peak level 97.7 %
Track quality 100.0 %
Test CRC 6CC44BD7
Copy CRC 6CC44BD7
Accurately ripped (confidence 44) [123EBCCA]
Copy OK

Track 5

Filename E:\EAC_RIP_FLAC\05 - Just Like a Woman.wav

Pre-gap length 0:00:01.80

Peak level 88.6 %
Track quality 100.0 %
Test CRC 112C6077
Copy CRC 112C6077
Accurately ripped (confidence 45) [1FAAEBAD]
Copy OK

Track 6

Filename E:\EAC_RIP_FLAC\06 - Stanley's Song.wav

Pre-gap length 0:00:01.80

Peak level 93.4 %
Track quality 100.0 %
Test CRC AEF2F9A4
Copy CRC AEF2F9A4
Accurately ripped (confidence 43) [4F5B5F98]
Copy OK

Track 7

Filename E:\EAC_RIP_FLAC\07 - Glory, Glory.wav

Pre-gap length 0:00:01.49

Peak level 88.7 %
Track quality 100.0 %
Test CRC A5C27B12
Copy CRC A5C27B12
Accurately ripped (confidence 44) [EFFE6110]
Copy OK

Track 8

Filename E:\EAC_RIP_FLAC\08 - I Trust.wav

Pre-gap length 0:00:01.80

Peak level 92.9 %
Track quality 100.0 %
Test CRC 01451391
Copy CRC 01451391
Accurately ripped (confidence 43) [9F4D94F4]
Copy OK

Track 9

Filename E:\EAC_RIP_FLAC\09 - I Wanna Grow Up to be a Politician.wav

Pre-gap length 0:00:01.80

Peak level 100.0 %
Track quality 100.0 %
Test CRC A01A85F9
Copy CRC A01A85F9
Accurately ripped (confidence 44) [DC3E94D4]
Copy OK

Track 10

Filename E:\EAC_RIP_FLAC\10 - Green Apple Quick Step.wav

Pre-gap length 0:00:01.80

Peak level 87.5 %
Track quality 100.0 %
Test CRC 1FB647D6
Copy CRC 1FB647D6
Accurately ripped (confidence 44) [61F684AD]
Copy OK

Track 11

Filename E:\EAC_RIP_FLAC\11 - Tiffany Queen.wav

Pre-gap length 0:00:01.81

Peak level 89.6 %
Track quality 100.0 %
Test CRC E751EEDE
Copy CRC E751EEDE
Accurately ripped (confidence 44) [BC4DE116]
Copy OK

Track 12

Filename E:\EAC_RIP_FLAC\12 - Bugler.wav

Pre-gap length 0:00:01.80

Peak level 88.7 %
Track quality 100.0 %
Test CRC 694B93B5
Copy CRC 694B93B5
Accurately ripped (confidence 45) [AC4E3F94]
Copy OK

Track 13

Filename E:\EAC_RIP_FLAC\13 - Lazy Waters.wav

Pre-gap length 0:00:01.80

Peak level 85.0 %
Track quality 100.0 %
Test CRC FBE82F1E
Copy CRC FBE82F1E
Accurately ripped (confidence 45) [EFB092F0]
Copy OK

Track 14

Filename E:\EAC_RIP_FLAC\14 - Farther Along.wav

Pre-gap length 0:00:01.80

Peak level 83.0 %
Track quality 100.0 %
Test CRC 1BA73564
Copy CRC 1BA73564
Accurately ripped (confidence 45) [F346FFCE]
Copy OK

Track 15

Filename E:\EAC_RIP_FLAC\15 - White's Lightning.wav

Pre-gap length 0:00:01.80

Peak level 97.7 %
Track quality 99.9 %
Test CRC 0CFFBADC
Copy CRC 0CFFBADC
Accurately ripped (confidence 45) [3DA121C8]
Copy OK

Track 16

Filename E:\EAC_RIP_FLAC\16 - Turn! Turn! Turn! (To Everything There is a Season).wav

Pre-gap length 0:00:01.37

Peak level 93.7 %
Track quality 100.0 %
Test CRC 5FD5C7B9
Copy CRC 5FD5C7B9
Accurately ripped (confidence 45) [DF8FEA3C]
Copy OK

Track 17

Filename E:\EAC_RIP_FLAC\17 - Mr. Tambourine Man.wav

Pre-gap length 0:00:01.80

Peak level 100.0 %
Track quality 100.0 %
Test CRC 4C00F186
Copy CRC 4C00F186
Accurately ripped (confidence 45) [71B69755]
Copy OK

Track 18

Filename E:\EAC_RIP_FLAC\18 - He Was a Friend of Mine.wav

Pre-gap length 0:00:01.81

Peak level 87.0 %
Track quality 100.0 %
Test CRC 01681DB5
Copy CRC 01681DB5
Accurately ripped (confidence 44) [CF8DED81]
Copy OK

Track 19

Filename E:\EAC_RIP_FLAC\19 - Paths of Victory.wav

Pre-gap length 0:00:01.80

Peak level 91.1 %
Track quality 100.0 %
Test CRC 514F9C53
Copy CRC 514F9C53
Accurately ripped (confidence 46) [7049B3FB]
Copy OK

Track 20

Filename E:\EAC_RIP_FLAC\20 - From a Distance.wav

Pre-gap length 0:00:01.57

Peak level 70.1 %
Track quality 100.0 %
Test CRC C6E0298F
Copy CRC C6E0298F
Accurately ripped (confidence 46) [A5B66C05]
Copy OK

Track 21

Filename E:\EAC_RIP_FLAC\21 - Love That Never Dies.wav

Pre-gap length 0:00:01.53

Peak level 100.0 %
Track quality 100.0 %
Test CRC F66E9FB1
Copy CRC F66E9FB1
Accurately ripped (confidence 43) [C96468F1]
Copy OK


All tracks accurately ripped

No errors occurred

End of status report


[CUETools log; Date: 08.10.2018 3:48:30; Version: 2.1.4]
[AccurateRip ID: 0035fdd1-03307011-22108c15] found.
Track [ CRC | V2 ] Status
01 [d31ce086|60e62387] (071+107/193) Accurately ripped
02 [54ab0ce6|7013d9c6] (069+107/188) Accurately ripped
03 [c55cfcd0|c9acb443] (070+107/188) Accurately ripped
04 [123ebcca|b6511077] (070+107/188) Accurately ripped
05 [1faaebad|8a3b6be0] (071+107/189) Accurately ripped
06 [4f5b5f98|f4ca0b01] (069+105/185) Accurately ripped
07 [effe6110|6e14badd] (070+106/188) Accurately ripped
08 [9f4d94f4|01d27656] (068+107/186) Accurately ripped
09 [dc3e94d4|a0f6b11a] (070+107/192) Accurately ripped
10 [61f684ad|0a206c1f] (070+105/187) Accurately ripped
11 [bc4de116|a5057ff1] (070+105/188) Accurately ripped
12 [ac4e3f94|2964229b] (071+106/189) Accurately ripped
13 [efb092f0|22709da3] (071+106/189) Accurately ripped
14 [f346ffce|f588ba8b] (071+106/190) Accurately ripped
15 [3da121c8|2b2ef71e] (071+106/189) Accurately ripped
16 [df8fea3c|120f3423] (071+106/189) Accurately ripped
17 [71b69755|ce892a9d] (071+107/190) Accurately ripped
18 [cf8ded81|0811f5cb] (070+107/191) Accurately ripped
19 [7049b3fb|eb978a49] (072+108/194) Accurately ripped
20 [a5b66c05|56637d00] (072+107/193) Accurately ripped
21 [c96468f1|4a438ef9] (069+106/189) Accurately ripped
Offsetted by -137:
01 [d39ce357] (004/193) Accurately ripped
02 [bb16a6b5] (003/188) Accurately ripped
03 [f78f7f7c] (003/188) Accurately ripped
04 [92eb38d6] (003/188) Accurately ripped
05 [77997cff] (003/189) Accurately ripped
06 [3fe1f7a3] (003/185) Accurately ripped
07 [ff04e81f] (004/188) Accurately ripped
08 [04875847] (003/186) Accurately ripped
09 [64a4e380] (004/192) Accurately ripped
10 [f679c77d] (003/187) Accurately ripped
11 [79b1965a] (004/188) Accurately ripped
12 [583b6eda] (003/189) Accurately ripped
13 [7ce898ec] (003/189) Accurately ripped
14 [0d58cc87] (004/190) Accurately ripped
15 [51785e52] (003/189) Accurately ripped
16 [7e442101] (003/189) Accurately ripped
17 [fe6f0195] (003/190) Accurately ripped
18 [ca2b7b1c] (003/191) Accurately ripped
19 [58e01ca2] (003/194) Accurately ripped
20 [e2c8ad7d] (003/193) Accurately ripped
21 [26fb00e6] (003/189) Accurately ripped
Offsetted by 58:
01 [e774b27c] (002/193) Accurately ripped
02 [68d730b0] (002/188) Accurately ripped
03 [d938a798] (002/188) Accurately ripped
04 [fb8955d2] (002/188) Accurately ripped
05 [c44050b9] (002/189) Accurately ripped
06 [8c190c8a] (002/185) Accurately ripped
07 [d513e85a] (002/188) Accurately ripped
08 [693c9a16] (002/186) Accurately ripped
09 [5b7dc79c] (002/192) Accurately ripped
10 [b11a828d] (002/187) Accurately ripped
11 [8a05c4ee] (002/188) Accurately ripped
12 [50d54798] (002/189) Accurately ripped
13 [1c8bc698] (002/189) Accurately ripped
14 [c2de4bb4] (002/190) Accurately ripped
15 [b44b9da4] (002/189) Accurately ripped
16 [fbac432a] (002/189) Accurately ripped
17 [992cb8d5] (002/190) Accurately ripped
18 [4f07f4d3] (002/191) Accurately ripped
19 [f1ca7e55] (002/194) Accurately ripped
20 [e76b6c55] (002/193) Accurately ripped
21 [e6e8dbff] (002/189) Accurately ripped
Offsetted by -1372:
01 [ab4618c2] (002/193) Accurately ripped
02 [6ea8922a] (000/188) No match (V2 was not tested)
03 [62602c20] (000/188) No match (V2 was not tested)
04 [a701d69a] (000/188) No match (V2 was not tested)
05 [92239565] (000/189) No match (V2 was not tested)
06 [b2851dec] (000/185) No match (V2 was not tested)
07 [b3509154] (000/188) No match (V2 was not tested)
08 [dc0b6228] (000/186) No match (V2 was not tested)
09 [9e9c9424] (002/192) Accurately ripped
10 [587fd16d] (000/187) No match (V2 was not tested)
11 [12471a06] (000/188) No match (V2 was not tested)
12 [31c2677c] (000/189) No match (V2 was not tested)
13 [3489cd00] (000/189) No match (V2 was not tested)
14 [8fb5fc6a] (000/190) No match (V2 was not tested)
15 [34e922a0] (000/189) No match (V2 was not tested)
16 [b95b48a8] (000/189) No match (V2 was not tested)
17 [d512ce55] (000/190) No match (V2 was not tested)
18 [2b61cd95] (002/191) Accurately ripped
19 [3b13b1df] (002/194) Accurately ripped
20 [70174a25] (002/193) Accurately ripped
21 [676dea9d] (002/189) Accurately ripped

Track Peak [ CRC32 ] [W/O NULL] [ LOG ]
– 100,0 [DBBD1620] [4AF746FF]
01 100,0 [D1FFFC49] [ABE3A9BA] CRC32
02 93,3 [16C8FCC5] [7C5A0394] CRC32
03 77,4 [8503D931] [A63CAD11] CRC32
04 97,7 [6CC44BD7] [F1D0318D] CRC32
05 88,6 [112C6077] [EBCA926E] CRC32
06 93,4 [AEF2F9A4] [12470E8A] CRC32
07 88,7 [A5C27B12] [472972B1] CRC32
08 92,9 [01451391] [0E3DA3D7] CRC32
09 100,0 [A01A85F9] [A752E33B] CRC32
10 87,5 [1FB647D6] [8B355378] CRC32
11 89,6 [E751EEDE] [6E516486] CRC32
12 88,7 [694B93B5] [76CA7505] CRC32
13 85,0 [FBE82F1E] [7A397B83] CRC32
14 83,0 [1BA73564] [71BEFD84] CRC32
15 97,7 [0CFFBADC] [30F7913D] CRC32
16 93,7 [5FD5C7B9] [738EB47A] CRC32
17 100,0 [4C00F186] [B3BAD8B3] CRC32
18 87,0 [01681DB5] [E34DF83E] CRC32
19 91,1 [514F9C53] [0AEA478F] CRC32
20 70,1 [C6E0298F] [F043C417] CRC32
21 100,0 [F66E9FB1] [A357C15C] CRC32


Tracks marked ‡ are previously unreleased.
Tracks marked ø are previously unreleased alternate versions.
Tracks marked # are previously unreleased remixes.
Tracks marked † are outtakes, remixes or alternate versions that had previously only appeared on the Never Before compilation.


All thanks go to the original releaser

The Byrds or The Byrds in my Blog

Download The Byrds ‎- The Byrds (1990):