Tags
Language
Tags

The Children - Rebirth (2002)

Posted By: v3122
The Children - Rebirth (2002)

The Children - Rebirth (2002)
EAC | Flac(Image) + Cue + Log & MP3 CBR 320Kbps
Gear Fab, GF-187 | ~ 461 or 185 Mb | Artwork(jpg) -> 6.17 Mb
Garage Rock, Psychedelic Rock

The band that eventually became the Children began life as a pair of competing garage combos on the often-overlooked San Antonio rock circuit in 1965. The Stoics came together in the spring of that year. Guitarists William Ash and Rufus Quillian were upper-middle-class kids while singer Al Acosta, drummer Sam Allen, and bass player Michel Marechal all came from the city's predominantly Hispanic northeast side. All, however, were united by a love of the Rolling Stones and the Kinks. The band released a single ("Hate") at the beginning of 1967, just before they split in two over a disagreement. It was not long before William Ash was invited to join the Argyles, which had also come together in the spring of 1965, with Stephen Perron on guitar and vocals, Louis Cabaza on organ and electric piano, lead guitarist Chris Holzaus, bassist Benny Treiber, and drummer Steve Anderson. Like the Stoics, they were a garage band but made advances more quickly in the scene, taking up the role as house band at the Blue Note Lounge in 1966 after fellow scenesters the Sir Douglas Quintet had moved on to wider acclaim. Later in the year, the group entered a Houston studio to record their first 45, "White Lightnin'." They continued to tour around south Texas until releasing a second single, a version of the Beau Brummels' "Still in Love With You Baby."

At this point, a dispute broke out between Holzaus and the rest of band. Holzaus left, and the Argyles acquired Ash, who in turn brought in new drummer Andrew Szuch, Jr. to replace Anderson. Female vocalist Cassell Webb also joined the band's ranks, and they made the dramatic transformation into the Mind's Eye. This coincided not only with a new single, the classic garage-psych one-off, "Help, I'm Lost," but with the opening of the band's own psychedelic club as well. By this point the members had also discovered the sine qua non of '60s chemical catalysts: LSD. Within a couple months, the city had closed down the club due to the escalation of drug-related incidents, and the Mind's Eye responded by heading out to California and the Summer of Love. Treiber, a friend of the sister of fellow Texan Mike Nesmith, preceded the band to Los Angeles to discuss with Nesmith the possibility that he might produce the band, but when Nesmith proved to have too many prior engagements, Davy Jones decided to take them on. Jones had a falling out with Treiber, however, and he was replaced by Ash's old bandmate Marechal. The lineup finally settled, the band decided it would be appropriate, in light of all the changes, to select a new name as well. The Children were born.

The group soon entered the studio to begin recording their first album. Unfortunately, Jones returned from a U.K. tour in late 1967 to discover that his manager had already spent all the money he had earmarked for his new record label. The band, with only three songs finished, were released from their contract. An extremely limited-edition of the Ash-Perron original "Picture Me" was pressed up as a single and released on Laramie, but again, that label management squandered the band's money. By this time, the Children were playing at all the popular venues on Sunset Boulevard, but strapped for cash and taking increasing amounts of acid, they decided to head back to Texas.

In Houston, they signed with Cinema Records, and entered the studio with Leland Rogers to record their sole LP, Rebirth. The album, released in the summer of 1968, is one of the finest examples of Texas psychedelia. Major label Atco picked it up for national distribution later in the year. Lineup changes again afflicted the band at this point. Perron contracted hepatitis from shooting heroin and was laid up for more than half a year. Ash, an Air Force brat, moved to Japan with his family and was replaced by teenage whiz Kenny Cordray. Jim Newhouse also took Zsuch's place after the latter was in a car accident. Still, the Children went back into studio in the summer of 1969 to record a new single, a version of Bo Diddley's "Pills." Perron and Cordray also co-wrote and recorded "Francene," later re-recorded by ZZ Top, with Billy Gibbons. The band began shopping for a new record deal. The search ended when Lou Adler – in Houston overseeing production of Robert Altman's Brewster McCloud – saw the band live and signed them on the spot to Dunhill Records. The Children again journeyed out to California and began recording their second album for Adler's new Ode imprint. Although acetates and test pressings of the 1970 LP were made, the album was never actually completed, and never subsequently materialized. A pair of 45s, "From the Very Start" and "Fire Ring," were released by Ode, the former becoming a minor hit. The band returned to Houston, Cabaza left, and the rest of the band decided to join a disastrous B.B. King/ZZ Top tour rather than return to California for the coming-out show Adler had scheduled for them. The Children finally disintegrated in 1971. Perron, in the throes of a serious drug problem, went into a mental hospital to try to kick his habit. He was unsuccessful, dying from an what appeared to be an accidental overdose in 1973.

by Stanton Swihart, allmusic
The Children - Rebirth (2002):

The Children - Rebirth (2002)

Tracklist:

The Stoics - Rebirth:
01. Enough Of What I Need
02. Hate

The Argyles - Rebirth:
03. Farmer John
04. White Lightnin'
05. Still In Love With You Baby
06. Turn On Your Love Life

The Mind's Eye - Rebirth:
07. Help, I'm Lost

The Children - Rebirth:
08. Daybreak
09. Maypole
10. Don't Ever Lose It
11. Beautiful
12. Sitting On A Flower
13. I'll Be Your Sunshine
14. Military School
15. I Got Involved
16. Pictorial
17. Dreaming Slave
18. Picture Me
19. Enough Of What I Need
20. Pills (She Went To My Head)
21. Once More
22. Fire Ring
23. Francene
24. It Won't Show On Me
25. Take A Look
26. Force Of Habit

Exact Audio Copy V1.3 from 2. September 2016

EAC extraction logfile from 21. July 2021, 10:16

The Children / Rebirth

Used drive : ASUS DRW-24D5MT Adapter: 1 ID: 0

Read mode : Secure
Utilize accurate stream : Yes
Defeat audio cache : Yes
Make use of C2 pointers : No

Read offset correction : 6
Overread into Lead-In and Lead-Out : No
Fill up missing offset samples with silence : Yes
Delete leading and trailing silent blocks : No
Null samples used in CRC calculations : Yes
Used interface : Native Win32 interface for Win NT & 2000
Gap handling : Appended to previous track

Used output format : User Defined Encoder
Selected bitrate : 1024 kBit/s
Quality : High
Add ID3 tag : No
Command line compressor : C:\Program Files (x86)\Exact Audio Copy\Flac\flac.exe
Additional command line options : -V -8 -T "Genre=%genre%" -T "Artist=%artist%" -T "Title=%title%" -T "Album=%albumtitle%" -T "Date=%year%" -T "Tracknumber=%tracknr%" -T "Comment=%comment%" %source%


TOC of the extracted CD

Track | Start | Length | Start sector | End sector
––––––––––––––––––––––––––––-
1 | 0:00.00 | 2:18.71 | 0 | 10420
2 | 2:18.71 | 2:29.33 | 10421 | 21628
3 | 4:48.29 | 1:54.04 | 21629 | 30182
4 | 6:42.33 | 2:03.34 | 30183 | 39441
5 | 8:45.67 | 2:04.28 | 39442 | 48769
6 | 10:50.20 | 3:16.03 | 48770 | 63472
7 | 14:06.23 | 2:21.48 | 63473 | 74095
8 | 16:27.71 | 2:32.10 | 74096 | 85505
9 | 19:00.06 | 2:48.38 | 85506 | 98143
10 | 21:48.44 | 3:13.08 | 98144 | 112626
11 | 25:01.52 | 2:49.74 | 112627 | 125375
12 | 27:51.51 | 5:12.21 | 125376 | 148796
13 | 33:03.72 | 2:56.52 | 148797 | 162048
14 | 36:00.49 | 2:44.50 | 162049 | 174398
15 | 38:45.24 | 1:02.54 | 174399 | 179102
16 | 39:48.03 | 7:44.17 | 179103 | 213919
17 | 47:32.20 | 4:02.24 | 213920 | 232093
18 | 51:34.44 | 2:39.32 | 232094 | 244050
19 | 54:14.01 | 2:01.61 | 244051 | 253186
20 | 56:15.62 | 2:49.02 | 253187 | 265863
21 | 59:04.64 | 2:18.43 | 265864 | 276256
22 | 61:23.32 | 3:55.69 | 276257 | 293950
23 | 65:19.26 | 3:30.61 | 293951 | 309761
24 | 68:50.12 | 3:00.12 | 309762 | 323273
25 | 71:50.24 | 2:52.67 | 323274 | 336240
26 | 74:43.16 | 3:22.15 | 336241 | 351405


Track 1

Filename H:\Sket4er\The Children – Rebirth (1966-70) 2002\01 Enough Of What I Need.wav

Pre-gap length 0:00:02.00

Peak level 100.0 %
Extraction speed 1.0 X
Track quality 100.0 %
Test CRC D5B04C25
Copy CRC D5B04C25
Track not present in AccurateRip database
Copy OK

Track 2

Filename H:\Sket4er\The Children – Rebirth (1966-70) 2002\02 Hate.wav

Peak level 100.0 %
Extraction speed 1.1 X
Track quality 100.0 %
Test CRC 258A5F59
Copy CRC 258A5F59
Track not present in AccurateRip database
Copy OK

Track 3

Filename H:\Sket4er\The Children – Rebirth (1966-70) 2002\03 Farmer John.wav

Peak level 100.0 %
Extraction speed 1.1 X
Track quality 100.0 %
Test CRC 0E576132
Copy CRC 0E576132
Track not present in AccurateRip database
Copy OK

Track 4

Filename H:\Sket4er\The Children – Rebirth (1966-70) 2002\04 White Lightnin'.wav

Peak level 100.0 %
Extraction speed 1.2 X
Track quality 100.0 %
Test CRC F280ADF8
Copy CRC F280ADF8
Track not present in AccurateRip database
Copy OK

Track 5

Filename H:\Sket4er\The Children – Rebirth (1966-70) 2002\05 Still In Love With You Baby.wav

Peak level 100.0 %
Extraction speed 1.2 X
Track quality 100.0 %
Test CRC E4007A78
Copy CRC E4007A78
Track not present in AccurateRip database
Copy OK

Track 6

Filename H:\Sket4er\The Children – Rebirth (1966-70) 2002\06 Turn On Your Love Life.wav

Peak level 100.0 %
Extraction speed 1.4 X
Track quality 100.0 %
Test CRC EB3045EE
Copy CRC EB3045EE
Track not present in AccurateRip database
Copy OK

Track 7

Filename H:\Sket4er\The Children – Rebirth (1966-70) 2002\07 Help, I'm Lost.wav

Peak level 100.0 %
Extraction speed 1.3 X
Track quality 100.0 %
Test CRC 21AD8C3A
Copy CRC 21AD8C3A
Track not present in AccurateRip database
Copy OK

Track 8

Filename H:\Sket4er\The Children – Rebirth (1966-70) 2002\08 Daybreak.wav

Peak level 100.0 %
Extraction speed 1.4 X
Track quality 100.0 %
Test CRC D24C0F12
Copy CRC D24C0F12
Track not present in AccurateRip database
Copy OK

Track 9

Filename H:\Sket4er\The Children – Rebirth (1966-70) 2002\09 Maypole.wav

Peak level 100.0 %
Extraction speed 1.5 X
Track quality 100.0 %
Test CRC 91ED8EC1
Copy CRC 91ED8EC1
Track not present in AccurateRip database
Copy OK

Track 10

Filename H:\Sket4er\The Children – Rebirth (1966-70) 2002\10 Don't Ever Lose It.wav

Peak level 100.0 %
Extraction speed 1.6 X
Track quality 100.0 %
Test CRC DBFCAED8
Copy CRC DBFCAED8
Track not present in AccurateRip database
Copy OK

Track 11

Filename H:\Sket4er\The Children – Rebirth (1966-70) 2002\11 Beautiful.wav

Peak level 100.0 %
Extraction speed 1.4 X
Track quality 99.9 %
Test CRC 6A5F6D50
Copy CRC 6A5F6D50
Track not present in AccurateRip database
Copy OK

Track 12

Filename H:\Sket4er\The Children – Rebirth (1966-70) 2002\12 Sitting On A Flower.wav

Peak level 100.0 %
Extraction speed 1.8 X
Track quality 100.0 %
Test CRC 43FE310D
Copy CRC 43FE310D
Track not present in AccurateRip database
Copy OK

Track 13

Filename H:\Sket4er\The Children – Rebirth (1966-70) 2002\13 I'll Be Your Sunshine.wav

Peak level 100.0 %
Extraction speed 1.8 X
Track quality 100.0 %
Test CRC E7CB8C1F
Copy CRC E7CB8C1F
Track not present in AccurateRip database
Copy OK

Track 14

Filename H:\Sket4er\The Children – Rebirth (1966-70) 2002\14 Military School.wav

Peak level 100.0 %
Extraction speed 1.5 X
Track quality 99.9 %
Test CRC AA988DB1
Copy CRC AA988DB1
Track not present in AccurateRip database
Copy OK

Track 15

Filename H:\Sket4er\The Children – Rebirth (1966-70) 2002\15 I Got Involved.wav

Peak level 100.0 %
Extraction speed 1.0 X
Track quality 99.8 %
Test CRC 76B12D82
Copy CRC 76B12D82
Track not present in AccurateRip database
Copy OK

Track 16

Filename H:\Sket4er\The Children – Rebirth (1966-70) 2002\16 Pictorial.wav

Peak level 100.0 %
Extraction speed 2.1 X
Track quality 100.0 %
Test CRC 8C753D8F
Copy CRC 8C753D8F
Track not present in AccurateRip database
Copy OK

Track 17

Filename H:\Sket4er\The Children – Rebirth (1966-70) 2002\17 Dreaming Slave.wav

Peak level 100.0 %
Extraction speed 1.9 X
Track quality 99.9 %
Test CRC 2983EADC
Copy CRC 2983EADC
Track not present in AccurateRip database
Copy OK

Track 18

Filename H:\Sket4er\The Children – Rebirth (1966-70) 2002\18 Picture Me.wav

Peak level 96.5 %
Extraction speed 2.0 X
Track quality 100.0 %
Test CRC 7267615D
Copy CRC 7267615D
Track not present in AccurateRip database
Copy OK

Track 19

Filename H:\Sket4er\The Children – Rebirth (1966-70) 2002\19 Enough Of What I Need.wav

Peak level 100.0 %
Extraction speed 1.6 X
Track quality 99.9 %
Test CRC 284D55FA
Copy CRC 284D55FA
Track not present in AccurateRip database
Copy OK

Track 20

Filename H:\Sket4er\The Children – Rebirth (1966-70) 2002\20 Pills (She Went To My Head).wav

Peak level 100.0 %
Extraction speed 2.1 X
Track quality 100.0 %
Test CRC 74234DF8
Copy CRC 74234DF8
Track not present in AccurateRip database
Copy OK

Track 21

Filename H:\Sket4er\The Children – Rebirth (1966-70) 2002\21 Once More.wav

Peak level 100.0 %
Extraction speed 2.1 X
Track quality 100.0 %
Test CRC 2EB5B216
Copy CRC 2EB5B216
Track not present in AccurateRip database
Copy OK

Track 22

Filename H:\Sket4er\The Children – Rebirth (1966-70) 2002\22 Fire Ring.wav

Peak level 100.0 %
Extraction speed 2.3 X
Track quality 100.0 %
Test CRC 9AC2A712
Copy CRC 9AC2A712
Track not present in AccurateRip database
Copy OK

Track 23

Filename H:\Sket4er\The Children – Rebirth (1966-70) 2002\23 Francene.wav

Peak level 100.0 %
Extraction speed 2.0 X
Track quality 99.9 %
Test CRC BB616A36
Copy CRC BB616A36
Track not present in AccurateRip database
Copy OK

Track 24

Filename H:\Sket4er\The Children – Rebirth (1966-70) 2002\24 It Won't Show On Me.wav

Peak level 100.0 %
Extraction speed 2.3 X
Track quality 100.0 %
Test CRC 4F989850
Copy CRC 4F989850
Track not present in AccurateRip database
Copy OK

Track 25

Filename H:\Sket4er\The Children – Rebirth (1966-70) 2002\25 Take A Look.wav

Peak level 100.0 %
Extraction speed 2.3 X
Track quality 100.0 %
Test CRC BA5750B5
Copy CRC BA5750B5
Track not present in AccurateRip database
Copy OK

Track 26

Filename H:\Sket4er\The Children – Rebirth (1966-70) 2002\26 Force Of Habit.wav

Peak level 100.0 %
Extraction speed 2.1 X
Track quality 99.9 %
Test CRC 6E28B321
Copy CRC 6E28B321
Track not present in AccurateRip database
Copy OK


None of the tracks are present in the AccurateRip database

No errors occurred

End of status report

–– CUETools DB Plugin V2.1.6

[CTDB TOCID: 7_PV3jXa12Oy5ygmxlA5WqFxENY-] found
Submit result: 7_PV3jXa12Oy5ygmxlA5WqFxENY- has been confirmed
Track | CTDB Status
1 | (1/1) Accurately ripped
2 | (1/1) Accurately ripped
3 | (1/1) Accurately ripped
4 | (1/1) Accurately ripped
5 | (1/1) Accurately ripped
6 | (1/1) Accurately ripped
7 | (1/1) Accurately ripped
8 | (1/1) Accurately ripped
9 | (1/1) Accurately ripped
10 | (1/1) Accurately ripped
11 | (1/1) Accurately ripped
12 | (1/1) Accurately ripped
13 | (1/1) Accurately ripped
14 | (1/1) Accurately ripped
15 | (1/1) Accurately ripped
16 | (1/1) Accurately ripped
17 | (1/1) Accurately ripped
18 | (1/1) Accurately ripped
19 | (1/1) Accurately ripped
20 | (1/1) Accurately ripped
21 | (1/1) Accurately ripped
22 | (1/1) Accurately ripped
23 | (1/1) Accurately ripped
24 | (1/1) Accurately ripped
25 | (1/1) Accurately ripped
26 | (1/1) Accurately ripped


==== Log checksum F3DD24F56F48B16C885BCFF59E71FB27EDFC2CD4E9A0FDCD5621F4A62DCCFA84 ====


[CUETools log; Date: 29.07.2021 16:19:03; Version: 2.1.4]
[AccurateRip ID: 004444a6-051a158c-72124d1a] disk not present in database.

Track Peak [ CRC32 ] [W/O NULL] [ LOG ]
– 100,0 [409C587D] [38E96B1C]
01 100,0 [D5B04C25] [4C17ED25] CRC32
02 100,0 [258A5F59] [7D17B119] CRC32
03 100,0 [0E576132] [2783AC4D] CRC32
04 100,0 [F280ADF8] [D36EC7BD] CRC32
05 100,0 [E4007A78] [0703D4C6] CRC32
06 100,0 [EB3045EE] [D13BEBDB] CRC32
07 100,0 [21AD8C3A] [32930F5C] CRC32
08 100,0 [D24C0F12] [0743EBCA] CRC32
09 100,0 [91ED8EC1] [6DE1389B] CRC32
10 100,0 [DBFCAED8] [295A2E14] CRC32
11 100,0 [6A5F6D50] [23412F6F] CRC32
12 100,0 [43FE310D] [4ED7FD90] CRC32
13 100,0 [E7CB8C1F] [7E22E8A8] CRC32
14 100,0 [AA988DB1] [365E3D2F] CRC32
15 100,0 [76B12D82] [BA93F0D0] CRC32
16 100,0 [8C753D8F] [9A2CBA11] CRC32
17 100,0 [2983EADC] [A23B0576] CRC32
18 96,5 [7267615D] [7755F65A] CRC32
19 100,0 [284D55FA] [0D665A68] CRC32
20 100,0 [74234DF8] [80FE8189] CRC32
21 100,0 [2EB5B216] [14D85214] CRC32
22 100,0 [9AC2A712] [822DE746] CRC32
23 100,0 [BB616A36] [9B756AFA] CRC32
24 100,0 [4F989850] [598C0C66] CRC32
25 100,0 [BA5750B5] [994CF6F1] CRC32
26 100,0 [6E28B321] [DFDD8897] CRC32


The Children - Rebirth (2002)

All thanks go to Sket4er

Download The Children - Rebirth (2002):