Subcategories
Please register here if you want to download anything!

If domain in your address bar is different from the list below
PLEASE LEAVE THAT SITE IMMEDIATELY
❗IT'S A DANGEROUS FAKE❗



Spicy Magazines for Men! ;-)

The Dickey Betts Band - Ramblin' Man: Live At The St. George Theatre (2019) {The Allman Brothers Band family} Blu-Ray

Posted By: popsakov
The Dickey Betts Band - Ramblin' Man: Live At The St. George Theatre (2019) {The Allman Brothers Band family} Blu-Ray

The Dickey Betts Band - Ramblin' Man: Live At The St. George Theatre (2019)
BD | MPEG-4 AVC Video, 1080p, 16:9, 23,976 fps, 23899 kbps, High Profile 4.1
LPCM 2.0, 48kHz/24-bit, 2304 Kbps | DTS-HD Master 5.1, 48kHz/24-bit, 4271 Kbps
Full Scans ~ 244 Mb | 01:34:51 | ~ 22,5 Gb | RAR 5% Recovery
Southern Rock | BMG Music #57213119

DICKEY BETTS has been a ramblin' man since quitting high school to play rock 'n' roll in a traveling circus called World of Mirth. He would do about a dozen shows a day on the Teen Beat stage at fairgrounds from Canada all the way down the eastern seaboard. On stages from city to city, this is where Betts has always thrived and cemented his reputation as one of the greatest guitarists of all time.

An original member of the Allman Brothers Band, he first found fame and fortune with the release of their 1971 live album "At Fillmore East" Betts played a key role in making the Allman Brothers stadium-filling stars in the mid-'70s then returned the band to prominence in 1989, keeping the group among rock's vanguard through the '90s. As leader of his Great Southern group during the 2000s, Betts continued to play stages around the world, elating fans from Chicago to Tokyo.

Betts headlined a celebratory 2014 charity concert held a few miles from his longtime Florida home and then, with no announcement before or during the show, he retired. For about four years, the Rock and Roll Hall of Fame inductee remained at the ranch house he shares with wife Donna on Little Sarasota Bay, spending his time playing golf rather than guitar. It appeared the Ramblin' Man had finally settled. On his 74th birthday, though, Betts made the announcement we all hoped to hear: "Everywhere I go fans keep saying they want me to get out and play again/' he said. "I think the time is right"

The new Dickey Betts Band debuted in May and now we have a CD/DVD capturing a special performance from July 21, 2018, at the historic St. George Theatre in New York City. Fittingly, it's titled "The Ramblin' Man," and, damn, it's wonderful to have the maestro back up there commanding the stage.

Wearing a cowboy hat and matching boots with blue jeans and a flannel shirt, a white-bearded Betts takes the stage backed by his former Great Southern band mates: his son DUANE BETTS (lead guitar), FRANKIE LOMBARDI (drums, backup vocals), MIKE KACH (keyboards and lead vocals) and PEDRO AREVALO (bass); as well as equally talented new additions DAMON FOWLER (lead/slide guitar and vocals) and STEVE CAMILLERI (drums).

The set opens with a staggering rendition of the propulsive instrumental "Hot 'Lanta," which has never before appeared on a Betts album. Based on a Betts melody line, it's the rare Allman Brothers Band song with the writing credited to all of the band's original lineup. Opening with some tasty riffs from the Grateful Dead favorite "Franklin's Tower," the band segues into a beautiful performance of Betts' “Blue Sky,"followed by an explosive "Statesboro Blues." Betts then pays tribute to his longtime bandmate Gregg Allman, who passed in 2017, by bringing his son Devon Allman on stage with the band to sing lead vocal on a chilling "Midnight Hider."

Kach takes the spotlight next to sing his self-penned ballad "My Getaway," with sweet solos and fills by all three guitarists on stage. Betts returns to lead vocals on "Nothing You Can Do," a fun, upbeat song from his 1977 solo album "Dickey Betts & Great Southern" that perfectly sums up unrequited love: "There ain't nothing you can do to love somebody and they don't love you." Betts' masterful instrumental, "In Memory of Eliiabeth Reed" runs about 20 minutes without ever meandering, the highlight of this rendition being the emotive manner in which father and son simultaneously make their guitars sound like violins.

When Arevalo plays the signature bass riff to the Gregg Allman-composed "Whipping Post" the room erupts. Like "Hot 'Lanta" and "Midnight Rider," "Whipping Post" has never before appeared on a Betts album. It's a real treat to hear Betts, with Kach delivering potent vocals, revisit this classic he helped shape on stage, night after night, with the Allman Brothers starting in 1969 as the song morphed from a five-minute studio track to a live epic running over twice that length here.

The Allman Brothers had one Top 10 single, and it came in 1973 with the Betts country-rock anthem "Ramblin' Маn" that he wrote and sang. Here, Betts gives it an unhurried, soulful makeover with ample room for his twangy guitar riffs to shine through like rays of Florida sunshine. The show concludes with Betts’ composition "Jessica," the rare instrumental to be a radio hit in the 1970s, with a live version of it from the 1990s winning a Grammy. On this recording, the song sounds positively joyous. Betts' guitar playing pours through the speakers as fluid, formidable and exhilarating as it has at any time during the past five decades.

YES, THE RAMBLIN’ MAN HAS RETURNED.

~ Wade Tatangelo Sarasota, Florida 2018

***************

Track List:

01. Hot 'Lanta [05:38]
(Dickey Betts, Gregg Allman, Duane Allman, Berry Oakley, Jai Johanson, Butch Trucks)

02. Blue Sky [10:23]
(Dickey Betts)

03. Statesboro Blues [05:51]
("Blind" Willie McTell)

04. Midnight Rider [04:56]
(Gregg Allman, Robert Kim Payne)

05. My Getaway [06:55]
(Dickey Betts)

06. Nothing You Can Do [06:52]
(Dickey Betts)

07. In Memory Of Elizabeth Reed [21:26]
(Dickey Betts)

08. Whipping Post [10:35]
(Gregg Allman)

09. Ramblin' Man [06:12]
(Dickey Betts)

10. Jessica [11:34]
(Dickey Betts)

Personnel:
Pedro Arevalo - Bass
Steve Camillleri - Drums
Frankie Lombardi - Drums, Percussion
Duane Betts - Guitar
Dickey Betts - Guitar, Vocals
Mike Kach - Keyboards, Vocals
Damon Fowler - Slide Guitar, Guitar
Guest:
Devon Allman - Vocals, Guitar (track 3)

Disc Title: The Dickey Betts Band - Ramblin' Man - Live At The St. George Theatre (2019) BD
Disc Size: 23 025 080 613 bytes
Protection: AACS
BD-Java: Yes
BDInfo: 0.5.8

Notes:

BDINFO HOME:
Cinema Squid
http://www.cinemasquid.com/blu-ray/tools/bdinfo

INCLUDES FORUMS REPORT FOR:
AVS Forum Blu-ray Audio and Video Specifications Thread
http://www.avsforum.com/avs-vb/showthread.php?t=1155731


********************
PLAYLIST: 00002.MPLS
********************

<–- BEGIN FORUMS PASTE –->
Total Video
Title Codec Length Movie Size Disc Size Bitrate Bitrate Main Audio Track Secondary Audio Track
––- ––– –––- ––––––– ––––––– –––- –––- ––––––––– ––––––––––-
00002.MPLS AVC 1:34:51 22 894 906 752 23 025 080 613 32,18 23,90 LPCM 2.0 2304Kbps (48kHz/24-bit) DTS-HD Master 5.1 4271Kbps (48kHz/24-bit)

DISC INFO:

Disc Title: The Dickey Betts Band - Ramblin' Man - Live At The St. George Theatre (2019) BD
Disc Size: 23 025 080 613 bytes
Protection: AACS
BD-Java: Yes
BDInfo: 0.5.8

PLAYLIST REPORT:

Name: 00002.MPLS
Length: 1:34:51.310 (h:m:s.ms)
Size: 22 894 906 752 bytes
Total Bitrate: 32,18 Mbps

VIDEO:

Codec Bitrate Description
––- –––- –––––-
MPEG-4 AVC Video 23899 kbps 1080p / 23,976 fps / 16:9 / High Profile 4.1

AUDIO:

Codec Language Bitrate Description
––- –––– –––- –––––-
LPCM Audio English 2304 kbps 2.0 / 48 kHz / 2304 kbps / 24-bit
DTS-HD Master Audio English 4271 kbps 5.1 / 48 kHz / 4271 kbps / 24-bit (DTS Core: 5.1 / 48 kHz / 1509 kbps / 24-bit)

FILES:

Name Time In Length Size Total Bitrate
–– –––- ––– –– ––––––-
00002.M2TS 0:00:00.000 1:34:51.310 22 894 906 752 32 182

CHAPTERS:

Number Time In Length Avg Video Rate Max 1-Sec Rate Max 1-Sec Time Max 5-Sec Rate Max 5-Sec Time Max 10Sec Rate Max 10Sec Time Avg Frame Size Max Frame Size Max Frame Time
––– –––- ––– ––––––– ––––––– ––––––– ––––––– ––––––– ––––––– ––––––– ––––––– ––––––– –––––––
1 0:00:00.000 1:34:51.310 23 899 kbps 48 261 kbps 00:56:19.376 38 885 kbps 00:37:59.777 35 183 kbps 01:21:26.298 124 601 bytes 596 743 bytes 00:15:55.245

STREAM DIAGNOSTICS:

File PID Type Codec Language Seconds Bitrate Bytes Packets
–– –- –– ––- –––– ––––––– ––––––– ––––––- ––-
00002.M2TS 4113 (0x1011) 0x1B AVC 5691,227 23 900 17 002 187 959 92 484 921
00002.M2TS 4352 (0x1100) 0x80 LPCM eng (English) 5691,227 2 310 1 643 648 884 9 106 102
00002.M2TS 4353 (0x1101) 0x86 DTS-HD MA eng (English) 5691,227 4 271 3 038 283 816 17 400 388

<–– END FORUMS PASTE ––>

QUICK SUMMARY:

Disc Title: The Dickey Betts Band - Ramblin' Man - Live At The St. George Theatre (2019) BD
Disc Size: 23 025 080 613 bytes
Protection: AACS
BD-Java: Yes
Playlist: 00002.MPLS
Size: 22 894 906 752 bytes
Length: 1:34:51.310
Total Bitrate: 32,18 Mbps
Video: MPEG-4 AVC Video / 23899 kbps / 1080p / 23,976 fps / 16:9 / High Profile 4.1
Audio: English / LPCM Audio / 2.0 / 48 kHz / 2304 kbps / 24-bit
Audio: English / DTS-HD Master Audio / 5.1 / 48 kHz / 4271 kbps / 24-bit (DTS Core: 5.1 / 48 kHz / 1509 kbps / 24-bit)


********************
PLAYLIST: 01002.MPLS
********************

<–- BEGIN FORUMS PASTE –->
Total Video
Title Codec Length Movie Size Disc Size Bitrate Bitrate Main Audio Track Secondary Audio Track
––- ––– –––- ––––––– ––––––– –––- –––- ––––––––– ––––––––––-
01002.MPLS AVC 1:34:51 22 894 906 752 23 025 080 613 32,18 23,90 LPCM 2.0 2304Kbps (48kHz/24-bit) DTS-HD Master 5.1 4271Kbps (48kHz/24-bit)

DISC INFO:

Disc Title: The Dickey Betts Band - Ramblin' Man - Live At The St. George Theatre (2019) BD
Disc Size: 23 025 080 613 bytes
Protection: AACS
BD-Java: Yes
BDInfo: 0.5.8

PLAYLIST REPORT:

Name: 01002.MPLS
Length: 1:34:51.310 (h:m:s.ms)
Size: 22 894 906 752 bytes
Total Bitrate: 32,18 Mbps

VIDEO:

Codec Bitrate Description
––- –––- –––––-
MPEG-4 AVC Video 23899 kbps 1080p / 23,976 fps / 16:9 / High Profile 4.1

AUDIO:

Codec Language Bitrate Description
––- –––– –––- –––––-
LPCM Audio English 2304 kbps 2.0 / 48 kHz / 2304 kbps / 24-bit
DTS-HD Master Audio English 4271 kbps 5.1 / 48 kHz / 4271 kbps / 24-bit (DTS Core: 5.1 / 48 kHz / 1509 kbps / 24-bit)

FILES:

Name Time In Length Size Total Bitrate
–– –––- ––– –– ––––––-
00002.M2TS 0:00:00.000 1:34:51.310 22 894 906 752 32 182

CHAPTERS:

Number Time In Length Avg Video Rate Max 1-Sec Rate Max 1-Sec Time Max 5-Sec Rate Max 5-Sec Time Max 10Sec Rate Max 10Sec Time Avg Frame Size Max Frame Size Max Frame Time
––– –––- ––– ––––––– ––––––– ––––––– ––––––– ––––––– ––––––– ––––––– ––––––– ––––––– –––––––
1 0:00:00.000 0:01:01.936 24 682 kbps 39 824 kbps 00:00:19.019 33 689 kbps 00:00:15.640 32 462 kbps 00:00:10.885 128 594 bytes 496 158 bytes 00:00:42.500
2 0:01:01.936 0:05:31.497 22 834 kbps 44 655 kbps 00:01:51.694 32 602 kbps 00:03:46.100 28 581 kbps 00:03:41.137 119 048 bytes 446 795 bytes 00:02:56.718
3 0:06:33.434 0:10:29.670 23 988 kbps 45 175 kbps 00:13:28.974 36 840 kbps 00:07:42.044 32 125 kbps 00:12:25.244 125 063 bytes 596 743 bytes 00:15:55.245
4 0:17:03.105 0:06:02.070 24 423 kbps 41 671 kbps 00:18:01.205 36 234 kbps 00:21:04.304 31 595 kbps 00:20:34.399 127 330 bytes 515 983 bytes 00:20:15.964
5 0:23:05.175 0:04:38.528 22 641 kbps 39 368 kbps 00:23:16.186 37 284 kbps 00:23:14.976 29 730 kbps 00:23:10.055 118 039 bytes 496 136 bytes 00:23:09.763
6 0:27:43.703 0:08:06.402 22 782 kbps 40 708 kbps 00:29:55.543 35 153 kbps 00:29:08.079 30 703 kbps 00:29:07.412 118 773 bytes 524 974 bytes 00:29:55.585
7 0:35:50.106 0:07:05.800 25 002 kbps 45 154 kbps 00:39:50.262 38 885 kbps 00:37:59.777 31 762 kbps 00:37:54.772 130 348 bytes 509 005 bytes 00:41:54.303
8 0:42:55.906 0:21:46.888 23 759 kbps 48 261 kbps 00:56:19.376 37 335 kbps 01:01:34.982 34 491 kbps 00:54:20.131 123 868 bytes 471 978 bytes 00:56:19.417
9 1:04:42.795 0:10:37.345 26 444 kbps 46 777 kbps 01:09:02.471 35 693 kbps 01:12:21.295 33 161 kbps 01:11:27.449 137 866 bytes 577 097 bytes 01:08:43.410
10 1:15:20.140 0:06:11.788 25 062 kbps 46 480 kbps 01:20:15.227 37 192 kbps 01:19:28.555 32 627 kbps 01:21:21.918 130 663 bytes 515 154 bytes 01:20:38.875
11 1:21:31.928 0:11:10.878 23 569 kbps 47 592 kbps 01:32:18.324 37 362 kbps 01:30:57.535 31 767 kbps 01:21:31.970 122 877 bytes 527 661 bytes 01:26:35.607
12 1:32:42.807 0:02:07.335 14 960 kbps 28 107 kbps 01:33:06.205 26 735 kbps 01:33:31.439 25 888 kbps 01:33:26.434 77 996 bytes 419 697 bytes 01:33:44.785
13 1:34:50.142 0:00:01.167 29 kbps 33 kbps 01:34:50.142 0 kbps 00:00:00.000 0 kbps 00:00:00.000 170 bytes 726 bytes 01:34:50.643

STREAM DIAGNOSTICS:

File PID Type Codec Language Seconds Bitrate Bytes Packets
–– –- –– ––- –––– ––––––– ––––––– ––––––- ––-
00002.M2TS 4113 (0x1011) 0x1B AVC 5691,227 23 900 17 002 187 959 92 484 921
00002.M2TS 4352 (0x1100) 0x80 LPCM eng (English) 5691,227 2 310 1 643 648 884 9 106 102
00002.M2TS 4353 (0x1101) 0x86 DTS-HD MA eng (English) 5691,227 4 271 3 038 283 816 17 400 388

<–– END FORUMS PASTE ––>

QUICK SUMMARY:

Disc Title: The Dickey Betts Band - Ramblin' Man - Live At The St. George Theatre (2019) BD
Disc Size: 23 025 080 613 bytes
Protection: AACS
BD-Java: Yes
Playlist: 01002.MPLS
Size: 22 894 906 752 bytes
Length: 1:34:51.310
Total Bitrate: 32,18 Mbps
Video: MPEG-4 AVC Video / 23899 kbps / 1080p / 23,976 fps / 16:9 / High Profile 4.1
Audio: English / LPCM Audio / 2.0 / 48 kHz / 2304 kbps / 24-bit
Audio: English / DTS-HD Master Audio / 5.1 / 48 kHz / 4271 kbps / 24-bit (DTS Core: 5.1 / 48 kHz / 1509 kbps / 24-bit)


********************
PLAYLIST: 00001.MPLS
********************

<–- BEGIN FORUMS PASTE –->
Total Video
Title Codec Length Movie Size Disc Size Bitrate Bitrate Main Audio Track Secondary Audio Track
––- ––– –––- ––––––– ––––––– –––- –––- ––––––––– ––––––––––-
00001.MPLS AVC 0:00:41 117 391 872 23 025 080 613 22,72 16,98 LPCM 2.0 2304Kbps (48kHz/24-bit) DTS-HD Master 2.0 2083Kbps (48kHz/24-bit)

DISC INFO:

Disc Title: The Dickey Betts Band - Ramblin' Man - Live At The St. George Theatre (2019) BD
Disc Size: 23 025 080 613 bytes
Protection: AACS
BD-Java: Yes
BDInfo: 0.5.8

PLAYLIST REPORT:

Name: 00001.MPLS
Length: 0:00:41.332 (h:m:s.ms)
Size: 117 391 872 bytes
Total Bitrate: 22,72 Mbps

VIDEO:

Codec Bitrate Description
––- –––- –––––-
MPEG-4 AVC Video 16985 kbps 1080p / 23,976 fps / 16:9 / High Profile 4.1

AUDIO:

Codec Language Bitrate Description
––- –––– –––- –––––-
LPCM Audio English 2304 kbps 2.0 / 48 kHz / 2304 kbps / 24-bit
DTS-HD Master Audio English 2083 kbps 2.0 / 48 kHz / 2083 kbps / 24-bit (DTS Core: 2.0 / 48 kHz / 1509 kbps / 24-bit)

FILES:

Name Time In Length Size Total Bitrate
–– –––- ––– –– ––––––-
00001.M2TS 0:00:00.000 0:00:41.332 117 391 872 22 698

CHAPTERS:

Number Time In Length Avg Video Rate Max 1-Sec Rate Max 1-Sec Time Max 5-Sec Rate Max 5-Sec Time Max 10Sec Rate Max 10Sec Time Avg Frame Size Max Frame Size Max Frame Time
––– –––- ––– ––––––– ––––––– ––––––– ––––––– ––––––– ––––––– ––––––– ––––––– ––––––– –––––––
1 0:00:00.000 0:00:41.332 17 002 kbps 18 423 kbps 00:00:39.330 17 989 kbps 00:00:19.019 17 796 kbps 00:00:19.310 88 729 bytes 843 160 bytes 00:00:36.995

STREAM DIAGNOSTICS:

File PID Type Codec Language Seconds Bitrate Bytes Packets
–– –- –– ––- –––– ––––––– ––––––– ––––––- ––-
00001.M2TS 4113 (0x1011) 0x1B AVC 41,250 17 164 88 501 262 481 586
00001.M2TS 4352 (0x1100) 0x80 LPCM eng (English) 41,250 2 315 11 937 548 66 136
00001.M2TS 4353 (0x1101) 0x86 DTS-HD MA eng (English) 41,250 2 090 10 774 808 65 413

<–– END FORUMS PASTE ––>

QUICK SUMMARY:

Disc Title: The Dickey Betts Band - Ramblin' Man - Live At The St. George Theatre (2019) BD
Disc Size: 23 025 080 613 bytes
Protection: AACS
BD-Java: Yes
Playlist: 00001.MPLS
Size: 117 391 872 bytes
Length: 0:00:41.332
Total Bitrate: 22,72 Mbps
Video: MPEG-4 AVC Video / 16985 kbps / 1080p / 23,976 fps / 16:9 / High Profile 4.1
Audio: English / LPCM Audio / 2.0 / 48 kHz / 2304 kbps / 24-bit
Audio: English / DTS-HD Master Audio / 2.0 / 48 kHz / 2083 kbps / 24-bit (DTS Core: 2.0 / 48 kHz / 1509 kbps / 24-bit)


********************
PLAYLIST: 01001.MPLS
********************

<–- BEGIN FORUMS PASTE –->
Total Video
Title Codec Length Movie Size Disc Size Bitrate Bitrate Main Audio Track Secondary Audio Track
––- ––– –––- ––––––– ––––––– –––- –––- ––––––––– ––––––––––-
01001.MPLS AVC 0:00:41 117 391 872 23 025 080 613 22,72 16,98 LPCM 2.0 2304Kbps (48kHz/24-bit) DTS-HD Master 2.0 2083Kbps (48kHz/24-bit)

DISC INFO:

Disc Title: The Dickey Betts Band - Ramblin' Man - Live At The St. George Theatre (2019) BD
Disc Size: 23 025 080 613 bytes
Protection: AACS
BD-Java: Yes
BDInfo: 0.5.8

PLAYLIST REPORT:

Name: 01001.MPLS
Length: 0:00:41.332 (h:m:s.ms)
Size: 117 391 872 bytes
Total Bitrate: 22,72 Mbps

VIDEO:

Codec Bitrate Description
––- –––- –––––-
MPEG-4 AVC Video 16985 kbps 1080p / 23,976 fps / 16:9 / High Profile 4.1

AUDIO:

Codec Language Bitrate Description
––- –––– –––- –––––-
LPCM Audio English 2304 kbps 2.0 / 48 kHz / 2304 kbps / 24-bit
DTS-HD Master Audio English 2083 kbps 2.0 / 48 kHz / 2083 kbps / 24-bit (DTS Core: 2.0 / 48 kHz / 1509 kbps / 24-bit)

FILES:

Name Time In Length Size Total Bitrate
–– –––- ––– –– ––––––-
00001.M2TS 0:00:00.000 0:00:41.332 117 391 872 22 698

CHAPTERS:

Number Time In Length Avg Video Rate Max 1-Sec Rate Max 1-Sec Time Max 5-Sec Rate Max 5-Sec Time Max 10Sec Rate Max 10Sec Time Avg Frame Size Max Frame Size Max Frame Time
––– –––- ––– ––––––– ––––––– ––––––– ––––––– ––––––– ––––––– ––––––– ––––––– ––––––– –––––––
1 0:00:00.000 0:00:00.125 2 477 kbps 0 kbps 00:00:00.000 0 kbps 00:00:00.000 0 kbps 00:00:00.000 9 685 bytes 37 240 bytes 00:00:00.000
2 0:00:00.125 0:00:39.914 17 159 kbps 18 415 kbps 00:00:19.310 17 989 kbps 00:00:19.019 17 796 kbps 00:00:19.310 89 461 bytes 843 160 bytes 00:00:36.995
3 0:00:40.040 0:00:01.292 13 546 kbps 16 843 kbps 00:00:40.165 0 kbps 00:00:00.000 0 kbps 00:00:00.000 75 494 bytes 832 083 bytes 00:00:40.999

STREAM DIAGNOSTICS:

File PID Type Codec Language Seconds Bitrate Bytes Packets
–– –- –– ––- –––– ––––––– ––––––– ––––––- ––-
00001.M2TS 4113 (0x1011) 0x1B AVC 41,250 17 164 88 501 262 481 586
00001.M2TS 4352 (0x1100) 0x80 LPCM eng (English) 41,250 2 315 11 937 548 66 136
00001.M2TS 4353 (0x1101) 0x86 DTS-HD MA eng (English) 41,250 2 090 10 774 808 65 413

<–– END FORUMS PASTE ––>

QUICK SUMMARY:

Disc Title: The Dickey Betts Band - Ramblin' Man - Live At The St. George Theatre (2019) BD
Disc Size: 23 025 080 613 bytes
Protection: AACS
BD-Java: Yes
Playlist: 01001.MPLS
Size: 117 391 872 bytes
Length: 0:00:41.332
Total Bitrate: 22,72 Mbps
Video: MPEG-4 AVC Video / 16985 kbps / 1080p / 23,976 fps / 16:9 / High Profile 4.1
Audio: English / LPCM Audio / 2.0 / 48 kHz / 2304 kbps / 24-bit
Audio: English / DTS-HD Master Audio / 2.0 / 48 kHz / 2083 kbps / 24-bit (DTS Core: 2.0 / 48 kHz / 1509 kbps / 24-bit)

The Dickey Betts Band - Ramblin' Man: Live At The St. George Theatre (2019) {The Allman Brothers Band family} Blu-Ray

The Dickey Betts Band - Ramblin' Man: Live At The St. George Theatre (2019) {The Allman Brothers Band family} Blu-Ray

The Dickey Betts Band - Ramblin' Man: Live At The St. George Theatre (2019) {The Allman Brothers Band family} Blu-Ray

The Dickey Betts Band - Ramblin' Man: Live At The St. George Theatre (2019) {The Allman Brothers Band family} Blu-Ray

The Dickey Betts Band - Ramblin' Man: Live At The St. George Theatre (2019) {The Allman Brothers Band family} Blu-Ray

The Dickey Betts Band - Ramblin' Man: Live At The St. George Theatre (2019) {The Allman Brothers Band family} Blu-Ray

The Dickey Betts Band - Ramblin' Man: Live At The St. George Theatre (2019) {The Allman Brothers Band family} Blu-Ray

The Dickey Betts Band - Ramblin' Man: Live At The St. George Theatre (2019) {The Allman Brothers Band family} Blu-Ray

The Dickey Betts Band - Ramblin' Man: Live At The St. George Theatre (2019) {The Allman Brothers Band family} Blu-Ray