Subcategories

Fats Domino - The Fats Domino Jukebox: 20 Greatest Hits the Way You Originally Heard Them (2002)

Posted By: Designol
Fats Domino - The Fats Domino Jukebox: 20 Greatest Hits the Way You Originally Heard Them (2002)

Fats Domino - The Fats Domino Jukebox: 20 Greatest Hits (2002)
EAC | FLAC | Image (Cue&Log) ~ 253 Mb | Mp3 (CBR320) ~ 118 Mb | Scans included | 00:44:39
Rock & Roll, Rhythm & Blues, Piano Blues | Label: Capitol/Imperial | # 72435-37600-2-1

R.I.P. Mr. Antoine "Fats" Domino, Jr. (February 26, 1928 – October 24, 2017)

Released in conjunction in 2002 with the four-disc box set Walking to New Orleans, as well as three other titles in EMI/Capitol's Crescent City Soul series, The Fats Domino Jukebox: 20 Greatest Hits the Way You Originally Heard Them becomes the definitive single-disc Fats collection on the market nearly by default – it's remastered, it's the one in print, and it has a flawless selection of songs. It's not markedly better than, say, the '90s' definitive Fats compilation, My Blue Heaven, since it has essentially the same track selection and even if the tapes were restored to their originally running speed, the difference is not enough for most ears to notice, but it's still a great collection of some of the greatest music of its time, and it summarizes Domino's peaks excellently. So, if you don't already have a Fats Domino collection, this surely is the one to get.

Review by Stephen Thomas Erlewine, Allmusic.com

Fats Domino - The Fats Domino Jukebox: 20 Greatest Hits the Way You Originally Heard Them (2002)



Tracklist:

01. The Fat Man (2:37)
02. Goin' Home (2:12)
03. Going To The River (2:35)
04. Ain't That A Shame (2:31)
05. All By Myself (2:24)
06. Poor Me (2:20)
07. I'm In Love Again (1:57)
08. Blueberry Hill (2:24)
09. Blue Monday (2:21)
10. I'm Walkin' (2:08)
11. It's You I Love (2:04)
12. Valley Of Tears (1:53)
13. Whole Lotta Loving (1:40)
14. I Want To Walk You Home (2:21)
15. I'm Gonna Be A Wheel Someday (2:03)
16. Be My Guest (2:17)
17. Walking To New Orleans (2:02)
18. My Girl Josephine (2:07)
19. Let The Four Winds Blow (2:19)
20. Jambalaya (On The Bayou) (2:24)


Exact Audio Copy V0.99 prebeta 5 from 4. May 2009

EAC extraction logfile from 9. January 2011, 14:26

Fats Domino / The Fats Domino Jukebox: 20 Greatest Hits

Used drive : Optiarc DVD RW AD-7241S Adapter: 5 ID: 0

Read mode : Secure
Utilize accurate stream : Yes
Defeat audio cache : Yes
Make use of C2 pointers : No

Read offset correction : 48
Overread into Lead-In and Lead-Out : No
Fill up missing offset samples with silence : Yes
Delete leading and trailing silent blocks : No
Null samples used in CRC calculations : Yes
Used interface : Native Win32 interface for Win NT & 2000

Used output format : User Defined Encoder
Selected bitrate : 768 kBit/s
Quality : High
Add ID3 tag : No
Command line compressor : D:\Program Files (x86)\Exact Audio Copy\FLAC\FLAC.EXE
Additional command line options : -6 -V -T "ARTIST=%a" -T "TITLE=%t" -T "ALBUM=%g" -T "DATE=%y" -T "TRACKNUMBER=%n" -T "GENRE=%m" -T "COMMENT=%e" %s -o %d


TOC of the extracted CD

Track | Start | Length | Start sector | End sector
––––––––––––––––––––––––––––-
1 | 0:00.00 | 2:36.62 | 0 | 11761
2 | 2:36.62 | 2:12.10 | 11762 | 21671
3 | 4:48.72 | 2:35.33 | 21672 | 33329
4 | 7:24.30 | 2:30.45 | 33330 | 44624
5 | 9:55.00 | 2:24.20 | 44625 | 55444
6 | 12:19.20 | 2:20.37 | 55445 | 65981
7 | 14:39.57 | 1:57.20 | 65982 | 74776
8 | 16:37.02 | 2:24.20 | 74777 | 85596
9 | 19:01.22 | 2:20.45 | 85597 | 96141
10 | 21:21.67 | 2:08.25 | 96142 | 105766
11 | 23:30.17 | 2:03.60 | 105767 | 115051
12 | 25:34.02 | 1:53.15 | 115052 | 123541
13 | 27:27.17 | 1:39.40 | 123542 | 131006
14 | 29:06.57 | 2:20.70 | 131007 | 141576
15 | 31:27.52 | 2:02.63 | 141577 | 150789
16 | 33:30.40 | 2:17.17 | 150790 | 161081
17 | 35:47.57 | 2:01.70 | 161082 | 170226
18 | 37:49.52 | 2:07.13 | 170227 | 179764
19 | 39:56.65 | 2:18.52 | 179765 | 190166
20 | 42:15.42 | 2:23.45 | 190167 | 200936


Range status and errors

Selected range

Filename F:\lossless\Fats Domino\2002 - The Fats Domino Jukebox- 20 Greatest Hits\Fats Domino - The Fats Domino Jukebox- 20 Greatest Hits.wav

Peak level 98.8 %
Range quality 100.0 %
Test CRC 69A42B3D
Copy CRC 69A42B3D
Copy OK

No errors occurred


AccurateRip summary

Track 1 accurately ripped (confidence 6) [BFBF04AC]
Track 2 accurately ripped (confidence 6) [C60B83C5]
Track 3 accurately ripped (confidence 6) [72EAF63E]
Track 4 accurately ripped (confidence 7) [5B9368C5]
Track 5 accurately ripped (confidence 6) [13063782]
Track 6 accurately ripped (confidence 6) [A4F609F7]
Track 7 accurately ripped (confidence 6) [68D6084C]
Track 8 accurately ripped (confidence 7) [D1EE3EE4]
Track 9 accurately ripped (confidence 6) [D6DC5796]
Track 10 accurately ripped (confidence 6) [31FBB652]
Track 11 accurately ripped (confidence 6) [416F4AEF]
Track 12 accurately ripped (confidence 6) [24D207AD]
Track 13 accurately ripped (confidence 6) [9D673E73]
Track 14 accurately ripped (confidence 6) [35FCCF07]
Track 15 accurately ripped (confidence 6) [17ADFE04]
Track 16 accurately ripped (confidence 6) [70B55622]
Track 17 accurately ripped (confidence 6) [35A04068]
Track 18 accurately ripped (confidence 6) [36D89DCD]
Track 19 accurately ripped (confidence 6) [0BBCE19E]
Track 20 accurately ripped (confidence 6) [3286A5CB]

All tracks accurately ripped

End of status report

[CUETools log; Date: 26.10.2017 0:23:44; Version: 2.1.4]
[CTDB TOCID: RzABKc5snr_m8VOXAmNJnvVslAs-] found.
Track | CTDB Status
1 | (11/11) Accurately ripped
2 | (11/11) Accurately ripped
3 | (11/11) Accurately ripped
4 | (11/11) Accurately ripped
5 | (11/11) Accurately ripped
6 | (11/11) Accurately ripped
7 | (11/11) Accurately ripped
8 | (11/11) Accurately ripped
9 | (10/11) Accurately ripped
10 | (10/11) Accurately ripped
11 | (11/11) Accurately ripped
12 | (11/11) Accurately ripped
13 | (11/11) Accurately ripped
14 | (11/11) Accurately ripped
15 | (11/11) Accurately ripped
16 | (11/11) Accurately ripped
17 | (11/11) Accurately ripped
18 | (11/11) Accurately ripped
19 | (11/11) Accurately ripped
20 | (11/11) Accurately ripped
[AccurateRip ID: 0020f28d-01de12ff-2f0a7714] found.
Track [ CRC | V2 ] Status
01 [bfbf04ac|8a225969] (10+19/29) Accurately ripped
02 [c60b83c5|4ecf170d] (10+19/29) Accurately ripped
03 [72eaf63e|fe7c0449] (10+19/29) Accurately ripped
04 [5b9368c5|83707c15] (11+19/30) Accurately ripped
05 [13063782|b65d06b5] (10+19/29) Accurately ripped
06 [a4f609f7|52e71136] (10+19/29) Accurately ripped
07 [68d6084c|d517749e] (10+19/29) Accurately ripped
08 [d1ee3ee4|b743eb53] (11+19/30) Accurately ripped
09 [d6dc5796|c0e36827] (10+19/29) Accurately ripped
10 [31fbb652|8872d106] (10+19/29) Accurately ripped
11 [416f4aef|2060f968] (10+19/29) Accurately ripped
12 [24d207ad|ad3f9323] (10+19/29) Accurately ripped
13 [9d673e73|5bfce601] (10+19/29) Accurately ripped
14 [35fccf07|52661861] (10+18/28) Accurately ripped
15 [17adfe04|2fc14a4c] (10+19/29) Accurately ripped
16 [70b55622|f7e395c5] (10+19/29) Accurately ripped
17 [35a04068|2b5ff1ca] (10+18/28) Accurately ripped
18 [36d89dcd|e762d96b] (10+18/28) Accurately ripped
19 [0bbce19e|fb4e38c9] (10+18/28) Accurately ripped
20 [3286a5cb|525c0758] (10+18/28) Accurately ripped

Track Peak [ CRC32 ] [W/O NULL] [ LOG ]
– 98,8 [69A42B3D] [CB1DCB77] CRC32
01 91,9 [3ACF9370] [68AFB45D]
02 87,1 [E41B503B] [E7D155DF]
03 97,7 [EAF96168] [C6CDD0A9]
04 92,2 [39BA5C01] [39007969]
05 85,1 [44583FCC] [2338880D]
06 97,7 [9F206FF4] [AC426A96]
07 92,2 [DF18050E] [9DAD1532]
08 87,1 [80249F9F] [A055AC4C]
09 97,7 [128BAF31] [CA61BEB6]
10 92,2 [BBAB7AB5] [6A0654F3]
11 97,7 [181F4687] [14A34D3F]
12 92,2 [A5B1E99B] [28AD4E1C]
13 92,2 [CED05154] [5B1C03E9]
14 98,8 [B4B33FBC] [B4156ED6]
15 97,7 [18C35C2D] [F755B5B9]
16 97,7 [1C1A3813] [ACAE4F86]
17 87,0 [E46179B6] [B8D71FC2]
18 87,1 [E21C8C11] [1F90A54B]
19 82,6 [B92378F7] [5D8DE2D2]
20 89,3 [F71C87A9] [1018C0EB]

foobar2000 1.2 / Dynamic Range Meter 1.1.1
log date: 2017-10-26 00:24:16

––––––––––––––––––––––––––––––––––––––––
Analyzed: Fats Domino / The Fats Domino Jukebox: 20 Greatest Hits
––––––––––––––––––––––––––––––––––––––––

DR Peak RMS Duration Track
––––––––––––––––––––––––––––––––––––––––
DR10 -0.73 dB -12.58 dB 2:37 01-The Fat Man
DR9 -1.20 dB -11.55 dB 2:12 02-Goin' Home
DR10 -0.20 dB -13.47 dB 2:35 03-Going To The River
DR11 -0.70 dB -12.46 dB 2:31 04-Ain't That A Shame
DR10 -1.40 dB -13.24 dB 2:24 05-All By Myself
DR9 -0.20 dB -11.78 dB 2:20 06-Poor Me
DR9 -0.70 dB -10.61 dB 1:57 07-I'm In Love Again
DR8 -1.20 dB -10.58 dB 2:24 08-Blueberry Hill
DR9 -0.20 dB -10.56 dB 2:21 09-Blue Monday
DR9 -0.70 dB -10.47 dB 2:08 10-I'm Walkin'
DR10 -0.20 dB -11.30 dB 2:04 11-It's You I Love
DR9 -0.70 dB -11.06 dB 1:53 12-Valley Of Tears
DR10 -0.70 dB -11.77 dB 1:40 13-Whole Lotta Loving
DR11 -0.10 dB -13.04 dB 2:21 14-I Want To Walk You Home
DR10 -0.20 dB -11.15 dB 2:03 15-I'm Gonna Be A Wheel Someday
DR11 -0.20 dB -13.04 dB 2:17 16-Be My Guest
DR11 -1.20 dB -14.28 dB 2:02 17-Walking To New Orleans
DR11 -1.20 dB -13.24 dB 2:07 18-My Girl Josephine
DR9 -1.66 dB -12.82 dB 2:19 19-Let The Four Winds Blow
DR9 -0.98 dB -11.56 dB 2:24 20-Jambalaya (On The Bayou)
––––––––––––––––––––––––––––––––––––––––

Number of tracks: 20
Official DR value: DR10

Samplerate: 44100 Hz
Channels: 2
Bits per sample: 16
Bitrate: 742 kbps
Codec: FLAC
================================================================================

Fats Domino - The Fats Domino Jukebox: 20 Greatest Hits the Way You Originally Heard Them (2002)

Fats Domino - The Fats Domino Jukebox: 20 Greatest Hits the Way You Originally Heard Them (2002)

All thanks to original releaser - rrixz

More interesting music in My Blog