Subcategories

The Harp Consort, Andrew Lawrence-King - Andrew Lawrence-King Edition (10CD) (2015)

Posted By: tirexiss
The Harp Consort, Andrew Lawrence-King - Andrew Lawrence-King Edition (10CD) (2015)

The Harp Consort, Andrew Lawrence-King - Andrew Lawrence-King Edition (10CD) (2015)
EAC | FLAC (image+.cue, log) | Covers Included | 11:47:04 | 2.7 Gb
Genre: Classical | Label: Deutsche Harmonia Mundi | Catalog: 88875090222

Like many of England's finest musicians, Andrew Lawrence-King began his career in choir school, serving as head chorister for the Cathedral and Parish Church of St. Peter Port, Guernsey. He took an organ scholarship to Cambridge University, where he read mathematics, but finished his studies in organ and voice at the London Early Music Centre. A party at a harpmaker's house gave the opportunity for Lawrence-King to own his first early harp, modeled after a Medieval Irish instrument. Without any modern teachers of historical harp performance available, he proceeded to teach himself the technique by studying historical sources, literary, iconographical, and musical. He discovered the "perfection" of plucked instruments, which can play both melody and polyphony.

Since then, Lawrence-King has performed with many of the leading early music ensembles in the world, playing continuo and as harp soloist with Hesperion XX, Tragicomedia (which he founded with Stephen Stubbs in 1988), the Harp Consort, and with Christopher Page's Gothic Voices, Paul Hillier's Theatre of Voices, Stephen Stubbs, Ton Koopman, Andrew Parrott, and Paul O'Dette. In addition, he conducts Baroque orchestras throughout Europe. He has been awarded the 1992 Erwin Bodky Award (Cambridge, MA, Society for Early Music), the 1996 American Handel Society Prize (for his recording of Alcina), the 1997 Noah Greenberg Award from the American Musicological Society, and the 1998 Echo Klassik Prize for Best Early Music Recording. The Akademie für Alte Musik in Bremen appointed Lawrence-King professor of harp and continuo; in his spare time, he earned the Yachtmaster Certificate from the Royal Yachting Association. Over 100 recordings of music spanning more than 500 years bear the imprint of his artistry.

Improvisation lies at the heart of Andrew Lawrence-King's approach to performing early instrumental music. Though music history clings to its notated sources, he argues that the unwritten traditions of Medieval and Renaissance instrumentalists may be recovered and brought to audiences in a vital way; he has compared his type of improvisation to the vitality of jazz, which follows an "emotional logic" more than a formal one, and which stretches, yet remains within, clear stylistic boundaries. Both the harp and early keyboard instruments have been excellent vehicles for his music, both able to mingle tone colors and effortlessly shift from melodic use to polyphony (he numbers them among the "perfect instruments"). His creative approach shows especially well in a series of collaborative recordings with Paul Hillier and with the work of his ensemble the Harp Consort, founded in 1994 of all continuo improvisers, with group improvisation its aesthetic goal. – Timothy Dickey

The Harp Consort, Andrew Lawrence-King - Andrew Lawrence-King Edition (10CD) (2015)

Track List:

CD01: Ludus Danielis
[1]-[28] Ludus Danielis
A Medieval "Opera" from the 13th-Century Cathedral in Beauvais
The Harp Consort
Andrew Lawrence-King

CD02-03: La púrpura de la rosa
Tomás de Torrejón y Velasco (1644-1728)
La púrpura de la rosa
Lima, Peru, 1701
Libretto by Pedro Cálderon de la Barca (1600-1681)
CD02
[1]-[27] El amor de Venus y Adonis
CD03
[1]-[25] La venganza de Marte
Terpsicore / Venus Judith Malafronte
Caliope / Adonis Ellen Hargis
Amor Johanna Almark
Flora Santina Tomasello
Cintia Gabriela de Geanx
Clori Caitriona O'Leary
Libia Jennie Cassidy
Marte Maria del Mar Fernandez Doval
Belona Päivi Järviö
Dragon Gloria Banditelli
Chato Douglas Masrawi
Celfa Nancy Mayer
The Harp Consort
Andrew Lawrence-King

CD04: Carolan's Harp
Carolan's Harp
[1] Try if it is in tune
[2] Mr. James Betagh
[3] Jigg to the above
Carolan's Lamentation
[4] Carolan's lamentation for Charles MacCabe
Carolan's Receipt for Whiskey
[5] Carolan's Receipt
[6] Bumper Squire Jones
Carolan's Concerto
[7] Docr. Delaney & Loftus Jones
[8] Mrs Costeloe
[9] Susai Ni Cheallaigh
[10] Sr Arthur Shean
[11] Planxty Connor
Carolan's Dreams
[12] Carolan's Rambles to Teague
[13] Fairy Queen by sigr e Carrollini
[14] Ta me 'mo chodladh
[15] Bridget Cruise
[16] Carolan's Dream
[17] I'm asleep & don't waken me
[18] Miss MacDermott (The Arethusa)
Carolan's Devotion
[19] Carrolan's Devotion
[20] Mr. Hugh O'Donnel
[21] O Flin (Planxty Flinn)
Carolan's Cup
[22] Carolan's Cup
Carolan's Farewell
[23] Carolan's Farewell (Carolan's Farewell to Musik)
[24] Seperation of Soul and Body
[25] Charles MacCabe's Lamentation for his dear and beloved Friend
The Harp Consort
Andrew Lawrence-King

CD05: La Harpe Royale
Musical Portraits, Dances and Laments from the Court of Louis XIV
Francesco Corbetta
[1] Fantasie caprice de chaconne
Louis Couperin
[2] Prélude en A mi la
[3] La Piémontoise
[4] Courante
[5] Sarabande
[6] Les Carillons de Paris
[7] Prélude
Robert de Visée
[8] Allemande 'La Royalle'
[9] Courante I & II
[10] Sarabande
[11] Gavotte
[12] Chacone
[13] Mascarade 'Rondeau'
Louis Couperin
[14] Tombeau de Mr. de Blancrocher
François Couperin
[15] Allemande 'L'Auguste'
[16] Premiere Courante - Seconde Courante
[17] Sarabande 'La Majestueuse'
[18] Gavotte
[19] Gigue 'La Milordine'
[20] Chaconne en rondeau 'La Favourite'
Louis Couperin
[21] Passacaille
Johann Jakob Froberger
[22] Lamento sopra la dolorosa perdità della Real Mstà di Ferdinando IV
Andrew Lawrence-King baroque harp

CD06: Die Davidsharfe
Georg Friedrich Handel
[1] King David's Air
Johann Jacob Froberger
[2] Toccata in D minor
Johann Sebastian Bach
[3] Prelude
Dietrich Buxtehude
[4]-[7] Suite d'Amour
[8] Passacaglia
Matthias Weckmann
[9] Toccata IV
Anonymous
[10]-[11] Aria & Menuets in A minor
Johann Caspar Ferdinand Fischer
[12] Prelude in F major
Johann Sebastian Bach
[13]-[18] Partita BWV 1006a
[19] Prelude in C major
[20] Aria (from Goldberg Variations)
Anonymous
[21] David of the White Rock
Andrew Lawrence-King baroque harp

CD07: His Majesty's Harper
John Dowland
[1] A Fancy
[2] My Lady Hunsdons Puffe
William Byrd
[3] Alman
John Dowland
[4] Frogg Galliard
Anonymus
[5] Scott's Lament
John Dowland
[6] Pavana lacrima
[7] Suzanna Galliard
William Byrd / John Dowland
[8] Rowland
John Dowland
[9] Can shee excuse
[10] Robin
William Byrd
[11] Praeludium to ye Fancie
[12] Fantasia
[13] Coranto
[14] A Gigg
John Dowland
[15] Tarletons Jigge
[16] Mrs Winters Jumpp
[17] Tarletones Riserrectione
Cormack MacDermott
[18] Cormacke
[19] Allmane
[20] Mr. Cormacke Allman
[21] Schoc.a.torum Cormacke
Jean le Flelle
[22] The Queens Maske
John Dowland
[23] Fine knacks for ladies
[24] Awake, sweet love, thou art returnd
[25] Go christall teares
[26] My thoughts are wingd with hopes
[27] Semper Dowland Semper dolens
[28] Farwell
[29] My dear adieu, my sweet love farewell
Andrew Lawrence-King baroque harp

CD08: Italian Concerto
Antonio Vivaldi
[1]-[3] Concerto, Op.3 No.8
[4]-[6] Concerto after Italian Gusto (after J.S. Bach)
Turlough O'Carolan
[7]-[8] Carolan's Concerto
Johann Sebastian Bach
[9] Aria variata
Georg Friedrich Handel
[10]-[12] Concerto, Op.4 No.6
[13]-[16] Concerto for organ, Op.4 No.1
The Harp Consort
Andrew Lawrence-King

CD09: Antonio Vivaldi
Antonio Vivaldi
Le Quattro Stagioni
[1]-[3] La primavera
[4]-[6] L'estate
[7]-[9] L'autunno
[10]-[12] L'inverno
[13]-[15] Il piacere
[16]-[18] La tempesta di mare
Sonnetti dimostrativi delle Quattro Stagioni
[19] La primavera
[20] L'estate
[21] L'autunno
[22] L'inverno
The Harp Consort
Andrew Lawrence-King

CD10: Johann Sebastian Bach
Johann Sebastian Bach
[1] Chromatische Fantasie in D minor, BWV 903
[2]-[5] Suite in D minor, BWV 997
[6] Fantasia in A minor, BWV 944
[7]-[11] Partita in A minor (orig. D minor), BWV 1004
Andrew Lawrence-King baroque harp

Performers:
The Harp Consort
Andrew Lawrence-King harp, direction

Exact Audio Copy V1.1 from 23. June 2015

EAC extraction logfile from 2. February 2016, 20:35

The Harp Consort, Andrew Lawrence-King / Andrew Lawrence-King Edition - CD01 - Ludus Danielis

Used drive : HL-DT-STDVDRAM GU70N Adapter: 1 ID: 0

Read mode : Secure
Utilize accurate stream : Yes
Defeat audio cache : Yes
Make use of C2 pointers : No

Read offset correction : 48
Overread into Lead-In and Lead-Out : No
Fill up missing offset samples with silence : Yes
Delete leading and trailing silent blocks : No
Null samples used in CRC calculations : Yes
Used interface : Native Win32 interface for Win NT & 2000

Used output format : User Defined Encoder
Selected bitrate : 128 kBit/s
Quality : High
Add ID3 tag : No
Command line compressor : C:\Program Files (x86)\Exact Audio Copy\Flac\flac.exe
Additional command line options : -V -8 -T "Date=%year%" -T "Genre=%genre%" %source%


TOC of the extracted CD

Track | Start | Length | Start sector | End sector
––––––––––––––––––––––––––––-
1 | 0:00.00 | 0:35.56 | 0 | 2680
2 | 0:35.56 | 3:22.45 | 2681 | 17875
3 | 3:58.26 | 0:48.32 | 17876 | 21507
4 | 4:46.58 | 3:26.25 | 21508 | 36982
5 | 8:13.08 | 2:56.60 | 36983 | 50242
6 | 11:09.68 | 7:15.10 | 50243 | 82877
7 | 18:25.03 | 3:08.39 | 82878 | 97016
8 | 21:33.42 | 3:46.31 | 97017 | 113997
9 | 25:19.73 | 4:29.47 | 113998 | 134219
10 | 29:49.45 | 0:56.06 | 134220 | 138425
11 | 30:45.51 | 4:35.01 | 138426 | 159051
12 | 35:20.52 | 3:09.46 | 159052 | 173272
13 | 38:30.23 | 2:21.44 | 173273 | 183891
14 | 40:51.67 | 3:56.07 | 183892 | 201598
15 | 44:47.74 | 2:30.43 | 201599 | 212891
16 | 47:18.42 | 2:18.43 | 212892 | 223284
17 | 49:37.10 | 2:23.56 | 223285 | 234065
18 | 52:00.66 | 2:17.73 | 234066 | 244413
19 | 54:18.64 | 1:31.12 | 244414 | 251250
20 | 55:50.01 | 1:35.20 | 251251 | 258395
21 | 57:25.21 | 2:21.37 | 258396 | 269007
22 | 59:46.58 | 1:46.71 | 269008 | 277028
23 | 61:33.54 | 1:37.24 | 277029 | 284327
24 | 63:11.03 | 3:27.07 | 284328 | 299859
25 | 66:38.10 | 4:07.11 | 299860 | 318395
26 | 70:45.21 | 4:13.31 | 318396 | 337401
27 | 74:58.52 | 0:32.43 | 337402 | 339844
28 | 75:31.20 | 2:00.16 | 339845 | 348860


Range status and errors

Selected range

Filename C:\temp\Andrew Lawrence-King Edition\CD01\Andrew Lawrence-King Edition - CD01.wav

Peak level 98.8 %
Extraction speed 2.3 X
Range quality 100.0 %
Test CRC 6C82FFB1
Copy CRC 6C82FFB1
Copy OK

No errors occurred


AccurateRip summary

Track 1 accurately ripped (confidence 11) [3E408737] (AR v2)
Track 2 accurately ripped (confidence 11) [B8D82575] (AR v2)
Track 3 accurately ripped (confidence 11) [11A1FACE] (AR v2)
Track 4 accurately ripped (confidence 11) [B0C35C75] (AR v2)
Track 5 accurately ripped (confidence 11) [405347B0] (AR v2)
Track 6 accurately ripped (confidence 11) [9F23B7F5] (AR v2)
Track 7 accurately ripped (confidence 11) [CECDFC7B] (AR v2)
Track 8 accurately ripped (confidence 11) [D0232AB6] (AR v2)
Track 9 accurately ripped (confidence 11) [D0E10880] (AR v2)
Track 10 accurately ripped (confidence 11) [620E476E] (AR v2)
Track 11 accurately ripped (confidence 11) [05724FF0] (AR v2)
Track 12 accurately ripped (confidence 11) [32F5C56C] (AR v2)
Track 13 accurately ripped (confidence 11) [B8914B01] (AR v2)
Track 14 accurately ripped (confidence 11) [AAE84049] (AR v2)
Track 15 accurately ripped (confidence 11) [869872AA] (AR v2)
Track 16 accurately ripped (confidence 11) [F4EF9EE8] (AR v2)
Track 17 accurately ripped (confidence 11) [7B7A22BA] (AR v2)
Track 18 accurately ripped (confidence 11) [34CBB8B0] (AR v2)
Track 19 accurately ripped (confidence 11) [FBB25D23] (AR v2)
Track 20 accurately ripped (confidence 11) [2C5886ED] (AR v2)
Track 21 accurately ripped (confidence 11) [F8AC9861] (AR v2)
Track 22 accurately ripped (confidence 11) [0B9DFDF6] (AR v2)
Track 23 accurately ripped (confidence 11) [88E78B9C] (AR v2)
Track 24 accurately ripped (confidence 11) [36EAB53C] (AR v2)
Track 25 accurately ripped (confidence 11) [8B021F30] (AR v2)
Track 26 accurately ripped (confidence 11) [39C701B5] (AR v2)
Track 27 accurately ripped (confidence 11) [17243309] (AR v2)
Track 28 accurately ripped (confidence 11) [787BA663] (AR v2)

All tracks accurately ripped

End of status report

==== Log checksum 70A08E163FB32EBE28A81DBE1EA720926E10875164DF214CE15CD692EAB3BBC4 ====

Exact Audio Copy V1.1 from 23. June 2015

EAC extraction logfile from 2. February 2016, 21:09

The Harp Consort, Andrew Lawrence-King / Andrew Lawrence-King Edition - CD02 - La púrpura de la rosa - CD1

Used drive : HL-DT-STDVDRAM GU70N Adapter: 1 ID: 0

Read mode : Secure
Utilize accurate stream : Yes
Defeat audio cache : Yes
Make use of C2 pointers : No

Read offset correction : 48
Overread into Lead-In and Lead-Out : No
Fill up missing offset samples with silence : Yes
Delete leading and trailing silent blocks : No
Null samples used in CRC calculations : Yes
Used interface : Native Win32 interface for Win NT & 2000

Used output format : User Defined Encoder
Selected bitrate : 128 kBit/s
Quality : High
Add ID3 tag : No
Command line compressor : C:\Program Files (x86)\Exact Audio Copy\Flac\flac.exe
Additional command line options : -V -8 -T "Date=%year%" -T "Genre=%genre%" %source%


TOC of the extracted CD

Track | Start | Length | Start sector | End sector
––––––––––––––––––––––––––––-
1 | 0:00.00 | 3:42.20 | 0 | 16669
2 | 3:42.20 | 1:13.26 | 16670 | 22170
3 | 4:55.46 | 6:09.61 | 22171 | 49906
4 | 11:05.32 | 2:23.33 | 49907 | 60664
5 | 13:28.65 | 2:53.19 | 60665 | 73658
6 | 16:22.09 | 3:20.35 | 73659 | 88693
7 | 19:42.44 | 1:51.70 | 88694 | 97088
8 | 21:34.39 | 1:56.08 | 97089 | 105796
9 | 23:30.47 | 1:31.26 | 105797 | 112647
10 | 25:01.73 | 1:15.25 | 112648 | 118297
11 | 26:17.23 | 1:42.72 | 118298 | 126019
12 | 28:00.20 | 2:31.53 | 126020 | 137397
13 | 30:31.73 | 6:15.50 | 137398 | 165572
14 | 36:47.48 | 3:11.67 | 165573 | 179964
15 | 39:59.40 | 3:28.69 | 179965 | 195633
16 | 43:28.34 | 1:14.51 | 195634 | 201234
17 | 44:43.10 | 1:39.65 | 201235 | 208724
18 | 46:23.00 | 1:47.15 | 208725 | 216764
19 | 48:10.15 | 0:56.28 | 216765 | 220992
20 | 49:06.43 | 2:38.43 | 220993 | 232885
21 | 51:45.11 | 2:38.27 | 232886 | 244762
22 | 54:23.38 | 1:55.15 | 244763 | 253402
23 | 56:18.53 | 1:27.66 | 253403 | 259993
24 | 57:46.44 | 1:50.48 | 259994 | 268291
25 | 59:37.17 | 1:17.37 | 268292 | 274103
26 | 60:54.54 | 1:32.17 | 274104 | 281020
27 | 62:26.71 | 3:34.63 | 281021 | 297133


Range status and errors

Selected range

Filename C:\temp\Andrew Lawrence-King Edition\CD02\Andrew Lawrence-King Edition - CD02.wav

Peak level 96.7 %
Extraction speed 5.1 X
Range quality 99.9 %
Test CRC 11AD5B38
Copy CRC 11AD5B38
Copy OK

No errors occurred


AccurateRip summary

Track 1 accurately ripped (confidence 4) [273595D1] (AR v2)
Track 2 accurately ripped (confidence 4) [7D94A21C] (AR v2)
Track 3 accurately ripped (confidence 3) [AB828725] (AR v2)
Track 4 accurately ripped (confidence 3) [375C5552] (AR v2)
Track 5 accurately ripped (confidence 3) [64923270] (AR v2)
Track 6 accurately ripped (confidence 4) [5F36E471] (AR v2)
Track 7 accurately ripped (confidence 4) [FFF732FE] (AR v2)
Track 8 accurately ripped (confidence 4) [EB46BBF8] (AR v2)
Track 9 accurately ripped (confidence 3) [BE7A2BBB] (AR v2)
Track 10 accurately ripped (confidence 4) [4CC4D3AA] (AR v2)
Track 11 accurately ripped (confidence 4) [079CC799] (AR v2)
Track 12 accurately ripped (confidence 4) [F76E5D32] (AR v2)
Track 13 accurately ripped (confidence 4) [93CA5CCB] (AR v2)
Track 14 accurately ripped (confidence 4) [1DD1D34C] (AR v2)
Track 15 accurately ripped (confidence 4) [22A26358] (AR v2)
Track 16 accurately ripped (confidence 4) [CD0C6BE7] (AR v2)
Track 17 accurately ripped (confidence 4) [13B5DFF5] (AR v2)
Track 18 accurately ripped (confidence 3) [3149E1BD] (AR v2)
Track 19 accurately ripped (confidence 4) [3704EA3B] (AR v2)
Track 20 accurately ripped (confidence 4) [DAB8B9A2] (AR v2)
Track 21 accurately ripped (confidence 4) [03ED078F] (AR v2)
Track 22 accurately ripped (confidence 4) [8058CB35] (AR v2)
Track 23 accurately ripped (confidence 3) [193C35D7] (AR v2)
Track 24 accurately ripped (confidence 4) [68F3AEC4] (AR v2)
Track 25 accurately ripped (confidence 4) [7B677A73] (AR v2)
Track 26 accurately ripped (confidence 4) [CEFD6B89] (AR v2)
Track 27 accurately ripped (confidence 4) [3165CDDE] (AR v2)

All tracks accurately ripped

End of status report

==== Log checksum 242972D6280BBFD1C65713651D6E52E5207E43FFABA84F6C510ADB94A93F1A12 ====

Exact Audio Copy V1.1 from 23. June 2015

EAC extraction logfile from 2. February 2016, 21:43

The Harp Consort, Andrew Lawrence-King / Andrew Lawrence-King Edition - CD03 - La púrpura de la rosa - CD2

Used drive : HL-DT-STDVDRAM GU70N Adapter: 1 ID: 0

Read mode : Secure
Utilize accurate stream : Yes
Defeat audio cache : Yes
Make use of C2 pointers : No

Read offset correction : 48
Overread into Lead-In and Lead-Out : No
Fill up missing offset samples with silence : Yes
Delete leading and trailing silent blocks : No
Null samples used in CRC calculations : Yes
Used interface : Native Win32 interface for Win NT & 2000

Used output format : User Defined Encoder
Selected bitrate : 128 kBit/s
Quality : High
Add ID3 tag : No
Command line compressor : C:\Program Files (x86)\Exact Audio Copy\Flac\flac.exe
Additional command line options : -V -8 -T "Date=%year%" -T "Genre=%genre%" %source%


TOC of the extracted CD

Track | Start | Length | Start sector | End sector
––––––––––––––––––––––––––––-
1 | 0:00.00 | 2:52.28 | 0 | 12927
2 | 2:52.28 | 0:56.33 | 12928 | 17160
3 | 3:48.61 | 2:05.32 | 17161 | 26567
4 | 5:54.18 | 2:37.55 | 26568 | 38397
5 | 8:31.73 | 2:10.66 | 38398 | 48213
6 | 10:42.64 | 4:43.19 | 48214 | 69457
7 | 15:26.08 | 3:28.19 | 69458 | 85076
8 | 18:54.27 | 1:37.74 | 85077 | 92425
9 | 20:32.26 | 3:30.31 | 92426 | 108206
10 | 24:02.57 | 2:51.20 | 108207 | 121051
11 | 26:54.02 | 1:49.70 | 121052 | 129296
12 | 28:43.72 | 6:46.17 | 129297 | 159763
13 | 35:30.14 | 9:53.51 | 159764 | 204289
14 | 45:23.65 | 2:20.31 | 204290 | 214820
15 | 47:44.21 | 2:16.29 | 214821 | 225049
16 | 50:00.50 | 2:27.41 | 225050 | 236115
17 | 52:28.16 | 1:13.46 | 236116 | 241636
18 | 53:41.62 | 3:17.01 | 241637 | 256412
19 | 56:58.63 | 0:53.27 | 256413 | 260414
20 | 57:52.15 | 1:20.21 | 260415 | 266435
21 | 59:12.36 | 1:52.71 | 266436 | 274906
22 | 61:05.32 | 0:31.68 | 274907 | 277299
23 | 61:37.25 | 0:51.17 | 277300 | 281141
24 | 62:28.42 | 3:55.30 | 281142 | 298796
25 | 66:23.72 | 4:21.71 | 298797 | 318442


Range status and errors

Selected range

Filename C:\temp\Andrew Lawrence-King Edition\CD03\Andrew Lawrence-King Edition - CD03.wav

Peak level 98.8 %
Extraction speed 5.4 X
Range quality 100.0 %
Test CRC 830B4144
Copy CRC 830B4144
Copy OK

No errors occurred


AccurateRip summary

Track 1 accurately ripped (confidence 3) [958E80A3] (AR v2)
Track 2 accurately ripped (confidence 4) [EE7C207D] (AR v2)
Track 3 accurately ripped (confidence 4) [D9CE4E62] (AR v2)
Track 4 accurately ripped (confidence 4) [AE91257F] (AR v2)
Track 5 accurately ripped (confidence 4) [BE5A7EB2] (AR v2)
Track 6 accurately ripped (confidence 4) [CB426AAF] (AR v2)
Track 7 accurately ripped (confidence 4) [FD6CE6FF] (AR v2)
Track 8 accurately ripped (confidence 4) [6E00B8A0] (AR v2)
Track 9 accurately ripped (confidence 4) [F99EFE2E] (AR v2)
Track 10 accurately ripped (confidence 4) [22D8A55B] (AR v2)
Track 11 accurately ripped (confidence 4) [DFB5EE4A] (AR v2)
Track 12 accurately ripped (confidence 4) [6AC90118] (AR v2)
Track 13 accurately ripped (confidence 4) [9D75DFD8] (AR v2)
Track 14 accurately ripped (confidence 4) [51A0E7E0] (AR v2)
Track 15 accurately ripped (confidence 4) [228ED670] (AR v2)
Track 16 accurately ripped (confidence 4) [3EF571FC] (AR v2)
Track 17 accurately ripped (confidence 4) [64AC6648] (AR v2)
Track 18 accurately ripped (confidence 4) [29107593] (AR v2)
Track 19 accurately ripped (confidence 4) [637BED05] (AR v2)
Track 20 accurately ripped (confidence 4) [067E0A61] (AR v2)
Track 21 accurately ripped (confidence 4) [5EC0602B] (AR v2)
Track 22 accurately ripped (confidence 4) [FC856D12] (AR v2)
Track 23 accurately ripped (confidence 3) [A94635DE] (AR v2)
Track 24 accurately ripped (confidence 4) [C09AF225] (AR v2)
Track 25 accurately ripped (confidence 4) [3495460D] (AR v2)

All tracks accurately ripped

End of status report

==== Log checksum 36CB89DEBB8728CFADFD96CD4263C7DB245E58FDD7648C72E3C913DEC59BCB0D ====

Exact Audio Copy V1.1 from 23. June 2015

EAC extraction logfile from 2. February 2016, 23:53

The Harp Consort, Andrew Lawrence-King / Andrew Lawrence-King Edition - CD04 - Carolan's Harp

Used drive : HL-DT-STDVDRAM GU70N Adapter: 1 ID: 0

Read mode : Secure
Utilize accurate stream : Yes
Defeat audio cache : Yes
Make use of C2 pointers : No

Read offset correction : 48
Overread into Lead-In and Lead-Out : No
Fill up missing offset samples with silence : Yes
Delete leading and trailing silent blocks : No
Null samples used in CRC calculations : Yes
Used interface : Native Win32 interface for Win NT & 2000

Used output format : User Defined Encoder
Selected bitrate : 128 kBit/s
Quality : High
Add ID3 tag : No
Command line compressor : C:\Program Files (x86)\Exact Audio Copy\Flac\flac.exe
Additional command line options : -V -8 -T "Date=%year%" -T "Genre=%genre%" %source%


TOC of the extracted CD

Track | Start | Length | Start sector | End sector
––––––––––––––––––––––––––––-
1 | 0:00.00 | 1:18.50 | 0 | 5899
2 | 1:18.50 | 1:55.72 | 5900 | 14596
3 | 3:14.47 | 3:40.45 | 14597 | 31141
4 | 6:55.17 | 6:34.58 | 31142 | 60749
5 | 13:30.00 | 2:50.62 | 60750 | 73561
6 | 16:20.62 | 6:48.53 | 73562 | 104214
7 | 23:09.40 | 4:12.02 | 104215 | 123116
8 | 27:21.42 | 2:46.25 | 123117 | 135591
9 | 30:07.67 | 1:41.28 | 135592 | 143194
10 | 31:49.20 | 3:10.40 | 143195 | 157484
11 | 34:59.60 | 2:33.52 | 157485 | 169011
12 | 37:33.37 | 2:29.48 | 169012 | 180234
13 | 40:03.10 | 4:19.45 | 180235 | 199704
14 | 44:22.55 | 1:38.35 | 199705 | 207089
15 | 46:01.15 | 6:33.60 | 207090 | 236624
16 | 52:35.00 | 2:11.20 | 236625 | 246469
17 | 54:46.20 | 2:20.70 | 246470 | 257039
18 | 57:07.15 | 6:13.37 | 257040 | 285051
19 | 63:20.52 | 2:30.10 | 285052 | 296311
20 | 65:50.62 | 2:06.23 | 296312 | 305784
21 | 67:57.10 | 2:05.35 | 305785 | 315194
22 | 70:02.45 | 3:41.17 | 315195 | 331786
23 | 73:43.62 | 2:25.63 | 331787 | 342724
24 | 76:09.50 | 1:15.40 | 342725 | 348389
25 | 77:25.15 | 0:26.65 | 348390 | 350404


Range status and errors

Selected range

Filename C:\temp\Andrew Lawrence-King Edition\CD04\Andrew Lawrence-King Edition - CD04.wav

Peak level 94.4 %
Extraction speed 2.3 X
Range quality 100.0 %
Test CRC 945D5A27
Copy CRC 945D5A27
Copy OK

No errors occurred


AccurateRip summary

Track 1 accurately ripped (confidence 3) [9A522BE1] (AR v2)
Track 2 accurately ripped (confidence 3) [485EA84D] (AR v2)
Track 3 accurately ripped (confidence 3) [EA57B2BC] (AR v2)
Track 4 accurately ripped (confidence 3) [96A80900] (AR v2)
Track 5 accurately ripped (confidence 3) [FA5BCADD] (AR v2)
Track 6 accurately ripped (confidence 3) [0832684F] (AR v2)
Track 7 accurately ripped (confidence 3) [4654D400] (AR v2)
Track 8 accurately ripped (confidence 3) [7C07D2DE] (AR v2)
Track 9 accurately ripped (confidence 3) [7E22514B] (AR v2)
Track 10 accurately ripped (confidence 3) [8D82FBAA] (AR v2)
Track 11 accurately ripped (confidence 3) [CFC09063] (AR v2)
Track 12 accurately ripped (confidence 3) [665F3619] (AR v2)
Track 13 accurately ripped (confidence 3) [CD4B51FC] (AR v2)
Track 14 accurately ripped (confidence 3) [0F64311D] (AR v2)
Track 15 accurately ripped (confidence 3) [9DD58E48] (AR v2)
Track 16 accurately ripped (confidence 3) [6CCA5038] (AR v2)
Track 17 accurately ripped (confidence 3) [CF128002] (AR v2)
Track 18 accurately ripped (confidence 3) [F0E398AD] (AR v2)
Track 19 accurately ripped (confidence 3) [C6DCFC92] (AR v2)
Track 20 accurately ripped (confidence 3) [7DFA6CCE] (AR v2)
Track 21 accurately ripped (confidence 3) [C6A03D43] (AR v2)
Track 22 accurately ripped (confidence 3) [183CFBA0] (AR v2)
Track 23 accurately ripped (confidence 3) [441F35C2] (AR v2)
Track 24 accurately ripped (confidence 3) [C2C7A6B1] (AR v2)
Track 25 accurately ripped (confidence 3) [26A61B1B] (AR v2)

All tracks accurately ripped

End of status report

==== Log checksum 277D6EA7D3112A28EE261B5E812AA393F4B5F50A638B8BBED41A3F607BA48911 ====

Exact Audio Copy V1.1 from 23. June 2015

EAC extraction logfile from 3. February 2016, 1:14

Andrew Lawrence-King / Andrew Lawrence-King Edition - CD05 - La Harpe Royale

Used drive : HL-DT-STDVDRAM GU70N Adapter: 1 ID: 0

Read mode : Secure
Utilize accurate stream : Yes
Defeat audio cache : Yes
Make use of C2 pointers : No

Read offset correction : 48
Overread into Lead-In and Lead-Out : No
Fill up missing offset samples with silence : Yes
Delete leading and trailing silent blocks : No
Null samples used in CRC calculations : Yes
Used interface : Native Win32 interface for Win NT & 2000

Used output format : User Defined Encoder
Selected bitrate : 128 kBit/s
Quality : High
Add ID3 tag : No
Command line compressor : C:\Program Files (x86)\Exact Audio Copy\Flac\flac.exe
Additional command line options : -V -8 -T "Date=%year%" -T "Genre=%genre%" %source%


TOC of the extracted CD

Track | Start | Length | Start sector | End sector
––––––––––––––––––––––––––––-
1 | 0:00.00 | 3:15.27 | 0 | 14651
2 | 3:15.27 | 1:40.10 | 14652 | 22161
3 | 4:55.37 | 2:07.10 | 22162 | 31696
4 | 7:02.47 | 1:25.53 | 31697 | 38124
5 | 8:28.25 | 0:46.65 | 38125 | 41639
6 | 9:15.15 | 2:04.35 | 41640 | 50974
7 | 11:19.50 | 9:01.60 | 50975 | 91609
8 | 20:21.35 | 3:25.55 | 91610 | 107039
9 | 23:47.15 | 2:52.42 | 107040 | 119981
10 | 26:39.57 | 1:36.53 | 119982 | 127234
11 | 28:16.35 | 0:47.02 | 127235 | 130761
12 | 29:03.37 | 2:22.65 | 130762 | 141476
13 | 31:26.27 | 1:42.28 | 141477 | 149154
14 | 33:08.55 | 7:07.12 | 149155 | 181191
15 | 40:15.67 | 3:58.25 | 181192 | 199066
16 | 44:14.17 | 3:31.13 | 199067 | 214904
17 | 47:45.30 | 2:26.02 | 214905 | 225856
18 | 50:11.32 | 1:22.43 | 225857 | 232049
19 | 51:34.00 | 1:37.50 | 232050 | 239374
20 | 53:11.50 | 6:18.07 | 239375 | 267731
21 | 59:29.57 | 6:11.18 | 267732 | 295574
22 | 65:41.00 | 6:14.25 | 295575 | 323649


Range status and errors

Selected range

Filename C:\temp\Andrew Lawrence-King Edition\CD05\Andrew Lawrence-King Edition - CD05.wav

Peak level 61.6 %
Extraction speed 2.1 X
Range quality 99.9 %
Test CRC EACEE8A7
Copy CRC EACEE8A7
Copy OK

No errors occurred


AccurateRip summary

Track 1 accurately ripped (confidence 11) [4B88F858] (AR v2)
Track 2 accurately ripped (confidence 12) [59661A30] (AR v2)
Track 3 accurately ripped (confidence 12) [428CD308] (AR v2)
Track 4 accurately ripped (confidence 12) [CC4B22E9] (AR v2)
Track 5 accurately ripped (confidence 12) [BDCA1F94] (AR v2)
Track 6 accurately ripped (confidence 12) [9564EA24] (AR v2)
Track 7 accurately ripped (confidence 12) [72A95AE9] (AR v2)
Track 8 accurately ripped (confidence 12) [D70DFC8C] (AR v2)
Track 9 accurately ripped (confidence 12) [59D69659] (AR v2)
Track 10 accurately ripped (confidence 12) [2D20A986] (AR v2)
Track 11 accurately ripped (confidence 12) [B4F07E2E] (AR v2)
Track 12 accurately ripped (confidence 12) [E68C0365] (AR v2)
Track 13 accurately ripped (confidence 12) [268750E9] (AR v2)
Track 14 accurately ripped (confidence 12) [19F347EB] (AR v2)
Track 15 accurately ripped (confidence 12) [906556A4] (AR v2)
Track 16 accurately ripped (confidence 12) [4DDD4CE6] (AR v2)
Track 17 accurately ripped (confidence 12) [35CE8796] (AR v2)
Track 18 accurately ripped (confidence 12) [3CD791BB] (AR v2)
Track 19 accurately ripped (confidence 12) [816059A4] (AR v2)
Track 20 accurately ripped (confidence 12) [11FE7BEF] (AR v2)
Track 21 accurately ripped (confidence 12) [5D8B6E44] (AR v2)
Track 22 accurately ripped (confidence 12) [FC550FCF] (AR v2)

All tracks accurately ripped

End of status report

==== Log checksum BF6B026CBABA493D4CD91C54DACDBB7F92DA32400C69EB0A037754FFB1FD2773 ====

Exact Audio Copy V1.1 from 23. June 2015

EAC extraction logfile from 3. February 2016, 21:52

Andrew Lawrence-King / Andrew Lawrence-King Edition - CD06 - Die Davidsharfe

Used drive : HL-DT-STDVDRAM GU70N Adapter: 1 ID: 0

Read mode : Secure
Utilize accurate stream : Yes
Defeat audio cache : Yes
Make use of C2 pointers : No

Read offset correction : 48
Overread into Lead-In and Lead-Out : No
Fill up missing offset samples with silence : Yes
Delete leading and trailing silent blocks : No
Null samples used in CRC calculations : Yes
Used interface : Native Win32 interface for Win NT & 2000

Used output format : User Defined Encoder
Selected bitrate : 128 kBit/s
Quality : High
Add ID3 tag : No
Command line compressor : C:\Program Files (x86)\Exact Audio Copy\Flac\flac.exe
Additional command line options : -V -8 -T "Date=%year%" -T "Genre=%genre%" %source%


TOC of the extracted CD

Track | Start | Length | Start sector | End sector
––––––––––––––––––––––––––––-
1 | 0:00.32 | 2:01.65 | 32 | 9171
2 | 2:02.22 | 4:36.03 | 9172 | 29874
3 | 6:38.25 | 2:11.15 | 29875 | 39714
4 | 8:49.40 | 2:30.50 | 39715 | 51014
5 | 11:20.15 | 1:32.65 | 51015 | 57979
6 | 12:53.05 | 4:43.72 | 57980 | 79276
7 | 17:37.02 | 1:19.05 | 79277 | 85206
8 | 18:56.07 | 7:17.15 | 85207 | 117996
9 | 26:13.22 | 7:07.13 | 117997 | 150034
10 | 33:20.35 | 1:47.55 | 150035 | 158114
11 | 35:08.15 | 2:59.67 | 158115 | 171606
12 | 38:08.07 | 3:00.40 | 171607 | 185146
13 | 41:08.47 | 5:34.25 | 185147 | 210221
14 | 46:42.72 | 4:15.45 | 210222 | 229391
15 | 50:58.42 | 3:26.60 | 229392 | 244901
16 | 54:25.27 | 4:23.73 | 244902 | 264699
17 | 58:49.25 | 1:57.07 | 264700 | 273481
18 | 60:46.32 | 2:32.33 | 273482 | 284914
19 | 63:18.65 | 2:50.70 | 284915 | 297734
20 | 66:09.60 | 3:55.05 | 297735 | 315364
21 | 70:04.65 | 3:56.00 | 315365 | 333064


Range status and errors

Selected range

Filename C:\temp\Andrew Lawrence-King Edition\CD06\Andrew Lawrence-King Edition - CD06.wav

Peak level 35.5 %
Extraction speed 2.2 X
Range quality 99.9 %
Test CRC EF59157D
Copy CRC EF59157D
Copy OK

No errors occurred


AccurateRip summary

Track 1 accurately ripped (confidence 6) [55450A18] (AR v2)
Track 2 accurately ripped (confidence 6) [BD753256] (AR v2)
Track 3 accurately ripped (confidence 6) [E60269EA] (AR v2)
Track 4 accurately ripped (confidence 6) [1C2FF047] (AR v2)
Track 5 accurately ripped (confidence 6) [0F7E37F3] (AR v2)
Track 6 accurately ripped (confidence 6) [3D277051] (AR v2)
Track 7 accurately ripped (confidence 6) [8D9F1A1D] (AR v2)
Track 8 accurately ripped (confidence 6) [20D951F7] (AR v2)
Track 9 accurately ripped (confidence 6) [279D2F9F] (AR v2)
Track 10 accurately ripped (confidence 6) [E83157D1] (AR v2)
Track 11 accurately ripped (confidence 6) [A33A56F8] (AR v2)
Track 12 accurately ripped (confidence 6) [2375BC5F] (AR v2)
Track 13 accurately ripped (confidence 6) [FC4C253C] (AR v2)
Track 14 accurately ripped (confidence 6) [70B72EA9] (AR v2)
Track 15 accurately ripped (confidence 6) [F786EDE8] (AR v2)
Track 16 accurately ripped (confidence 6) [F95B065D] (AR v2)
Track 17 accurately ripped (confidence 6) [E9F89C4C] (AR v2)
Track 18 accurately ripped (confidence 6) [B668A2C2] (AR v2)
Track 19 accurately ripped (confidence 6) [174CED83] (AR v2)
Track 20 accurately ripped (confidence 6) [CC78F97B] (AR v2)
Track 21 accurately ripped (confidence 6) [2B68B0C1] (AR v2)

All tracks accurately ripped

End of status report

==== Log checksum A7148631FB951893BA39E1006CC4E8C9DC0AB6A38546DCC093E66EE97CB30ED7 ====

Exact Audio Copy V1.1 from 23. June 2015

EAC extraction logfile from 3. February 2016, 22:30

Andrew Lawrence-King / Andrew Lawrence-King Edition - CD07 - His Majesty's Harper

Used drive : HL-DT-STDVDRAM GU70N Adapter: 1 ID: 0

Read mode : Secure
Utilize accurate stream : Yes
Defeat audio cache : Yes
Make use of C2 pointers : No

Read offset correction : 48
Overread into Lead-In and Lead-Out : No
Fill up missing offset samples with silence : Yes
Delete leading and trailing silent blocks : No
Null samples used in CRC calculations : Yes
Used interface : Native Win32 interface for Win NT & 2000

Used output format : User Defined Encoder
Selected bitrate : 128 kBit/s
Quality : High
Add ID3 tag : No
Command line compressor : C:\Program Files (x86)\Exact Audio Copy\Flac\flac.exe
Additional command line options : -V -8 -T "Date=%year%" -T "Genre=%genre%" %source%


TOC of the extracted CD

Track | Start | Length | Start sector | End sector
––––––––––––––––––––––––––––-
1 | 0:00.00 | 3:48.35 | 0 | 17134
2 | 3:48.35 | 1:46.52 | 17135 | 25136
3 | 5:35.12 | 1:19.70 | 25137 | 31131
4 | 6:55.07 | 2:02.22 | 31132 | 40303
5 | 8:57.29 | 2:08.04 | 40304 | 49907
6 | 11:05.33 | 5:09.59 | 49908 | 73141
7 | 16:15.17 | 1:37.21 | 73142 | 80437
8 | 17:52.38 | 1:49.69 | 80438 | 88681
9 | 19:42.32 | 1:16.33 | 88682 | 94414
10 | 20:58.65 | 2:30.59 | 94415 | 105723
11 | 23:29.49 | 0:57.20 | 105724 | 110018
12 | 24:26.69 | 9:32.25 | 110019 | 152943
13 | 33:59.19 | 1:00.23 | 152944 | 157466
14 | 34:59.42 | 0:55.32 | 157467 | 161623
15 | 35:54.74 | 0:39.08 | 161624 | 164556
16 | 36:34.07 | 0:36.47 | 164557 | 167303
17 | 37:10.54 | 0:57.32 | 167304 | 171610
18 | 38:08.11 | 3:00.20 | 171611 | 185130
19 | 41:08.31 | 0:53.72 | 185131 | 189177
20 | 42:02.28 | 1:00.02 | 189178 | 193679
21 | 43:02.30 | 1:25.44 | 193680 | 200098
22 | 44:27.74 | 4:28.00 | 200099 | 220198
23 | 48:55.74 | 1:04.55 | 220199 | 225053
24 | 50:00.54 | 1:22.36 | 225054 | 231239
25 | 51:23.15 | 1:49.15 | 231240 | 239429
26 | 53:12.30 | 1:23.53 | 239430 | 245707
27 | 54:36.08 | 3:24.02 | 245708 | 261009
28 | 58:00.10 | 5:09.65 | 261010 | 284249
29 | 63:10.00 | 1:53.16 | 284250 | 292740


Range status and errors

Selected range

Filename C:\temp\Andrew Lawrence-King Edition\CD07\Andrew Lawrence-King Edition - CD07.wav

Peak level 23.6 %
Extraction speed 5.2 X
Range quality 100.0 %
Test CRC 6FD2B6FA
Copy CRC 6FD2B6FA
Copy OK

No errors occurred


AccurateRip summary

Track 1 accurately ripped (confidence 8) [2DF2E49E] (AR v2)
Track 2 accurately ripped (confidence 8) [98C5991E] (AR v2)
Track 3 accurately ripped (confidence 8) [52E5E254] (AR v2)
Track 4 accurately ripped (confidence 8) [B4DE9B4B] (AR v2)
Track 5 accurately ripped (confidence 8) [38DA794A] (AR v2)
Track 6 accurately ripped (confidence 8) [81C81C51] (AR v2)
Track 7 accurately ripped (confidence 8) [B73FFDFF] (AR v2)
Track 8 accurately ripped (confidence 8) [D3076DC0] (AR v2)
Track 9 accurately ripped (confidence 8) [C5A2C2F3] (AR v2)
Track 10 accurately ripped (confidence 8) [5EEC71DF] (AR v2)
Track 11 accurately ripped (confidence 8) [AB549FC6] (AR v2)
Track 12 accurately ripped (confidence 7) [B6882F97] (AR v2)
Track 13 accurately ripped (confidence 8) [A6398151] (AR v2)
Track 14 accurately ripped (confidence 8) [A2A361C2] (AR v2)
Track 15 accurately ripped (confidence 8) [FF9B2D6D] (AR v2)
Track 16 accurately ripped (confidence 8) [0A6BEF2D] (AR v2)
Track 17 accurately ripped (confidence 8) [3F31F333] (AR v2)
Track 18 accurately ripped (confidence 8) [8180A9D9] (AR v2)
Track 19 accurately ripped (confidence 8) [7486C085] (AR v2)
Track 20 accurately ripped (confidence 8) [6081564B] (AR v2)
Track 21 accurately ripped (confidence 8) [6FFC9003] (AR v2)
Track 22 accurately ripped (confidence 8) [DE03762B] (AR v2)
Track 23 accurately ripped (confidence 8) [17489A1D] (AR v2)
Track 24 accurately ripped (confidence 8) [AC4549B8] (AR v2)
Track 25 accurately ripped (confidence 8) [1F26A172] (AR v2)
Track 26 accurately ripped (confidence 8) [911DBFD8] (AR v2)
Track 27 accurately ripped (confidence 8) [674C2FA9] (AR v2)
Track 28 accurately ripped (confidence 8) [BA2DF66C] (AR v2)
Track 29 accurately ripped (confidence 7) [64EDABF8] (AR v2)

All tracks accurately ripped

End of status report

==== Log checksum 6E132F134CC25E6E133688CC2903D4E66D3A4B1A2B3B0D49704517B3A0ED538F ====

Exact Audio Copy V1.1 from 23. June 2015

EAC extraction logfile from 4. February 2016, 1:14

The Harp Consort, Andrew Lawrence-King / Andrew Lawrence-King Edition - CD08 - Italian Concerto

Used drive : HL-DT-STDVDRAM GU70N Adapter: 1 ID: 0

Read mode : Secure
Utilize accurate stream : Yes
Defeat audio cache : Yes
Make use of C2 pointers : No

Read offset correction : 48
Overread into Lead-In and Lead-Out : No
Fill up missing offset samples with silence : Yes
Delete leading and trailing silent blocks : No
Null samples used in CRC calculations : Yes
Used interface : Native Win32 interface for Win NT & 2000

Used output format : User Defined Encoder
Selected bitrate : 128 kBit/s
Quality : High
Add ID3 tag : No
Command line compressor : C:\Program Files (x86)\Exact Audio Copy\Flac\flac.exe
Additional command line options : -V -8 -T "Date=%year%" -T "Genre=%genre%" %source%


TOC of the extracted CD

Track | Start | Length | Start sector | End sector
––––––––––––––––––––––––––––-
1 | 0:00.00 | 4:01.47 | 0 | 18121
2 | 4:01.47 | 3:08.43 | 18122 | 32264
3 | 7:10.15 | 3:33.32 | 32265 | 48271
4 | 10:43.47 | 4:20.23 | 48272 | 67794
5 | 15:03.70 | 4:23.52 | 67795 | 87571
6 | 19:27.47 | 4:32.15 | 87572 | 107986
7 | 23:59.62 | 3:21.05 | 107987 | 123066
8 | 27:20.67 | 2:01.00 | 123067 | 132141
9 | 29:21.67 | 11:00.35 | 132142 | 181676
10 | 40:22.27 | 6:20.58 | 181677 | 210234
11 | 46:43.10 | 4:25.00 | 210235 | 230109
12 | 51:08.10 | 3:00.00 | 230110 | 243609
13 | 54:08.10 | 4:48.52 | 243610 | 265261
14 | 58:56.62 | 5:41.18 | 265262 | 290854
15 | 64:38.05 | 1:12.42 | 290855 | 296296
16 | 65:50.47 | 3:53.38 | 296297 | 313809


Range status and errors

Selected range

Filename C:\temp\Andrew Lawrence-King Edition\CD08\Andrew Lawrence-King Edition - CD08.wav

Peak level 83.3 %
Extraction speed 5.3 X
Range quality 100.0 %
Test CRC 6EFBAF61
Copy CRC 6EFBAF61
Copy OK

No errors occurred


AccurateRip summary

Track 1 accurately ripped (confidence 2) [D40EAA84] (AR v2)
Track 2 accurately ripped (confidence 2) [67E768FC] (AR v2)
Track 3 accurately ripped (confidence 2) [075F5F5A] (AR v2)
Track 4 accurately ripped (confidence 2) [31F8CCC7] (AR v2)
Track 5 accurately ripped (confidence 2) [67074EAF] (AR v2)
Track 6 accurately ripped (confidence 2) [DA61BB33] (AR v2)
Track 7 accurately ripped (confidence 2) [AE6D96B6] (AR v2)
Track 8 accurately ripped (confidence 2) [2C2F52A8] (AR v2)
Track 9 accurately ripped (confidence 2) [51827A20] (AR v2)
Track 10 accurately ripped (confidence 2) [1C7CDBA9] (AR v2)
Track 11 accurately ripped (confidence 2) [E30F6E66] (AR v2)
Track 12 accurately ripped (confidence 2) [04C5D3C1] (AR v2)
Track 13 accurately ripped (confidence 2) [18952D16] (AR v2)
Track 14 accurately ripped (confidence 2) [CF158BB5] (AR v2)
Track 15 accurately ripped (confidence 2) [88CB608A] (AR v2)
Track 16 accurately ripped (confidence 2) [CACA144A] (AR v2)

All tracks accurately ripped

End of status report

==== Log checksum 1FB9C79E6E1B778B29D4C4081777719A52AE1E5013DA80E9BD8C97ACD9A077CE ====

Exact Audio Copy V1.1 from 23. June 2015

EAC extraction logfile from 4. February 2016, 2:38

Freiburger Barockorchester, Gottfried von der Goltz, The Harp Consort, Andrew Lawrence-King / Andrew Lawrence-King Edition - CD09 - Vivaldi

Used drive : HL-DT-STDVDRAM GU70N Adapter: 1 ID: 0

Read mode : Secure
Utilize accurate stream : Yes
Defeat audio cache : Yes
Make use of C2 pointers : No

Read offset correction : 48
Overread into Lead-In and Lead-Out : No
Fill up missing offset samples with silence : Yes
Delete leading and trailing silent blocks : No
Null samples used in CRC calculations : Yes
Used interface : Native Win32 interface for Win NT & 2000

Used output format : User Defined Encoder
Selected bitrate : 128 kBit/s
Quality : High
Add ID3 tag : No
Command line compressor : C:\Program Files (x86)\Exact Audio Copy\Flac\flac.exe
Additional command line options : -V -8 -T "Date=%year%" -T "Genre=%genre%" %source%


TOC of the extracted CD

Track | Start | Length | Start sector | End sector
––––––––––––––––––––––––––––-
1 | 0:00.32 | 3:29.58 | 32 | 15764
2 | 3:30.15 | 2:16.07 | 15765 | 25971
3 | 5:46.22 | 3:49.08 | 25972 | 43154
4 | 9:35.30 | 6:24.27 | 43155 | 71981
5 | 15:59.57 | 3:02.60 | 71982 | 85691
6 | 19:02.42 | 2:52.55 | 85692 | 98646
7 | 21:55.22 | 5:21.20 | 98647 | 122741
8 | 27:16.42 | 4:19.45 | 122742 | 142211
9 | 31:36.12 | 3:28.35 | 142212 | 157846
10 | 35:04.47 | 3:26.25 | 157847 | 173321
11 | 38:30.72 | 1:54.50 | 173322 | 181921
12 | 40:25.47 | 3:12.18 | 181922 | 196339
13 | 43:37.65 | 2:59.52 | 196340 | 209816
14 | 46:37.42 | 2:38.20 | 209817 | 221686
15 | 49:15.62 | 2:54.60 | 221687 | 234796
16 | 52:10.47 | 2:50.25 | 234797 | 247571
17 | 55:00.72 | 2:52.03 | 247572 | 260474
18 | 57:53.00 | 3:41.07 | 260475 | 277056
19 | 61:34.07 | 1:07.25 | 277057 | 282106
20 | 62:41.32 | 1:11.50 | 282107 | 287481
21 | 63:53.07 | 1:03.00 | 287482 | 292206
22 | 64:56.07 | 1:07.50 | 292207 | 297281


Range status and errors

Selected range

Filename C:\temp\Andrew Lawrence-King Edition\CD09\Andrew Lawrence-King Edition - CD09.wav

Peak level 80.1 %
Extraction speed 5.1 X
Range quality 99.9 %
Test CRC 4CB25522
Copy CRC 4CB25522
Copy OK

No errors occurred


AccurateRip summary

Track 1 accurately ripped (confidence 76) [88573ACC] (AR v2)
Track 2 accurately ripped (confidence 78) [F7918FF4] (AR v2)
Track 3 accurately ripped (confidence 78) [5BE1ADDE] (AR v2)
Track 4 accurately ripped (confidence 78) [B6C5C7DF] (AR v2)
Track 5 accurately ripped (confidence 78) [62AD1F3A] (AR v2)
Track 6 accurately ripped (confidence 78) [0B75B940] (AR v2)
Track 7 accurately ripped (confidence 78) [FA08964C] (AR v2)
Track 8 accurately ripped (confidence 78) [08F07ED8] (AR v2)
Track 9 accurately ripped (confidence 78) [5F50F7E2] (AR v2)
Track 10 accurately ripped (confidence 78) [DE4B6CAE] (AR v2)
Track 11 accurately ripped (confidence 77) [35C5FEC5] (AR v2)
Track 12 accurately ripped (confidence 78) [FF23751B] (AR v2)
Track 13 accurately ripped (confidence 78) [0CF7D552] (AR v2)
Track 14 accurately ripped (confidence 78) [94F90393] (AR v2)
Track 15 accurately ripped (confidence 78) [57B83BFE] (AR v2)
Track 16 accurately ripped (confidence 78) [D6565243] (AR v2)
Track 17 accurately ripped (confidence 78) [0DB5ECE2] (AR v2)
Track 18 accurately ripped (confidence 78) [6BC9C710] (AR v2)
Track 19 accurately ripped (confidence 76) [3A0C7888] (AR v2)
Track 20 accurately ripped (confidence 75) [CAC1E6C2] (AR v2)
Track 21 accurately ripped (confidence 76) [84208FFD] (AR v2)
Track 22 accurately ripped (confidence 74) [A7A46232] (AR v2)

All tracks accurately ripped

End of status report

==== Log checksum 9D2E359A811713105F3C9FD5763B7002124459615ABD6A03A1DC61B2258BDA9F ====

Exact Audio Copy V1.1 from 23. June 2015

EAC extraction logfile from 4. February 2016, 3:16

Andrew Lawrence-King / Andrew Lawrence-King Edition - CD10 - Bach - Die Fantasie der Chromatik

Used drive : HL-DT-STDVDRAM GU70N Adapter: 1 ID: 0

Read mode : Secure
Utilize accurate stream : Yes
Defeat audio cache : Yes
Make use of C2 pointers : No

Read offset correction : 48
Overread into Lead-In and Lead-Out : No
Fill up missing offset samples with silence : Yes
Delete leading and trailing silent blocks : No
Null samples used in CRC calculations : Yes
Used interface : Native Win32 interface for Win NT & 2000

Used output format : User Defined Encoder
Selected bitrate : 128 kBit/s
Quality : High
Add ID3 tag : No
Command line compressor : C:\Program Files (x86)\Exact Audio Copy\Flac\flac.exe
Additional command line options : -V -8 -T "Date=%year%" -T "Genre=%genre%" %source%


TOC of the extracted CD

Track | Start | Length | Start sector | End sector
––––––––––––––––––––––––––––-
1 | 0:00.00 | 10:36.61 | 0 | 47760
2 | 10:36.61 | 4:03.50 | 47761 | 66035
3 | 14:40.36 | 5:39.42 | 66036 | 91502
4 | 20:20.03 | 4:03.29 | 91503 | 109756
5 | 24:23.32 | 6:51.25 | 109757 | 140606
6 | 31:14.57 | 1:46.00 | 140607 | 148556
7 | 33:00.57 | 5:36.44 | 148557 | 173800
8 | 38:37.26 | 3:00.56 | 173801 | 187356
9 | 41:38.07 | 3:29.25 | 187357 | 203056
10 | 45:07.32 | 5:19.32 | 203057 | 227013
11 | 50:26.64 | 17:34.74 | 227014 | 306137


Range status and errors

Selected range

Filename C:\temp\Andrew Lawrence-King Edition\CD10\Andrew Lawrence-King Edition - CD10.wav

Peak level 54.8 %
Extraction speed 5.1 X
Range quality 100.0 %
Test CRC CE2881DB
Copy CRC CE2881DB
Copy OK

No errors occurred


AccurateRip summary

Track 1 accurately ripped (confidence 5) [ED0FE9E3] (AR v2)
Track 2 accurately ripped (confidence 5) [791CFCDD] (AR v2)
Track 3 accurately ripped (confidence 5) [9B8F1F6B] (AR v2)
Track 4 accurately ripped (confidence 5) [2A922BE2] (AR v2)
Track 5 accurately ripped (confidence 5) [4A5E2DEA] (AR v2)
Track 6 accurately ripped (confidence 5) [7CB7D6E9] (AR v2)
Track 7 accurately ripped (confidence 5) [7635F043] (AR v2)
Track 8 accurately ripped (confidence 5) [793EE9EC] (AR v2)
Track 9 accurately ripped (confidence 5) [99C0104A] (AR v2)
Track 10 accurately ripped (confidence 5) [489721A4] (AR v2)
Track 11 accurately ripped (confidence 5) [E66D89D9] (AR v2)

All tracks accurately ripped

End of status report

==== Log checksum EEFA515A061EFF3C206B3E6796975CECCD494BE522CFC53EC8F31B090D4C412D ====

Thanks to the Original ripper (A-Z)!

Welcome to my blog!

Download: