Tags
Language
Tags

The Hook - Will Grab You (1968)

Posted By: v3122
The Hook - Will Grab You (1968)

The Hook - Will Grab You (1968)
EAC | Flac(Image) + Cue + Log & MP3 CBR 320Kbps
2002 | Lizard Records, LR 0717-2 | ~ 180 or 68 Mb | Artwork(jpg) -> 2.85 Mb
Acid Rock, Psychedelic Rock, Hard Rock | Remastered

Formed in Los Angeles, California, USA, in 1967 by former Leaves guitarist Bobby Arlin, Hook also consisted of Buddy Sklar (bass) and Craig Boyd (drums). Will Grab You showed little of the folk/rock style Arlin’s previous group was noted for, offering instead power-trio heavy rock. The departure of Boyd in 1968 prompted a re-think which saw former Grass Roots keyboard player Danny Provisor and new drummer Dale Loyola drafted into the line-up. Hook offered a more polished style but, as neither release was a commercial success, Arlin folded the band the following year. He subsequently became a booking agent in Orange County, California.

~ allmusic
The Hook - Will Grab You (1968):

The Hook - Will Grab You (1968)

Tracklist:

01. Homes
02. Lookin' For You
03. You Know I Do
04. Turn Your Head
05. Son Of Fantasy
06. Dr. B. & His Friends
07. Plug Your Head In
08. Everything's Groovy
09. Garbage Man
10. Dimples

Exact Audio Copy V1.3 from 2. September 2016

EAC extraction logfile from 22. July 2021, 19:57

The Hook / Will Grab You

Used drive : ASUS DRW-24D5MT Adapter: 1 ID: 0

Read mode : Secure
Utilize accurate stream : Yes
Defeat audio cache : Yes
Make use of C2 pointers : No

Read offset correction : 6
Overread into Lead-In and Lead-Out : No
Fill up missing offset samples with silence : Yes
Delete leading and trailing silent blocks : No
Null samples used in CRC calculations : Yes
Used interface : Native Win32 interface for Win NT & 2000
Gap handling : Appended to previous track

Used output format : User Defined Encoder
Selected bitrate : 1024 kBit/s
Quality : High
Add ID3 tag : No
Command line compressor : C:\Program Files (x86)\Exact Audio Copy\Flac\flac.exe
Additional command line options : -V -8 -T "Genre=%genre%" -T "Artist=%artist%" -T "Title=%title%" -T "Album=%albumtitle%" -T "Date=%year%" -T "Tracknumber=%tracknr%" -T "Comment=%comment%" %source%


TOC of the extracted CD

Track | Start | Length | Start sector | End sector
––––––––––––––––––––––––––––-
1 | 0:00.01 | 3:49.61 | 1 | 17236
2 | 3:49.62 | 2:58.24 | 17237 | 30610
3 | 6:48.11 | 2:31.30 | 30611 | 41965
4 | 9:19.41 | 3:18.09 | 41966 | 56824
5 | 12:37.50 | 2:33.71 | 56825 | 68370
6 | 15:11.46 | 3:40.58 | 68371 | 84928
7 | 18:52.29 | 2:53.04 | 84929 | 97907
8 | 21:45.33 | 1:49.03 | 97908 | 106085
9 | 23:34.36 | 2:16.64 | 106086 | 116349
10 | 25:51.25 | 2:58.29 | 116350 | 129728


Track 1

Filename H:\Sket4er\The Hook – Will Grab You (1970) 2002\01 Homes.wav

Pre-gap length 0:00:02.01

Peak level 98.0 %
Extraction speed 1.1 X
Track quality 100.0 %
Test CRC FEA8CCB8
Copy CRC FEA8CCB8
Cannot be verified as accurate (confidence 1) [75326AF6], AccurateRip returned [A3EEA751] (AR v2)
Copy OK

Track 2

Filename H:\Sket4er\The Hook – Will Grab You (1970) 2002\02 Lookin' For You.wav

Peak level 98.0 %
Extraction speed 1.2 X
Track quality 100.0 %
Test CRC C41E3158
Copy CRC C41E3158
Cannot be verified as accurate (confidence 1) [D5B5F862], AccurateRip returned [ECE3C031] (AR v2)
Copy OK

Track 3

Filename H:\Sket4er\The Hook – Will Grab You (1970) 2002\03 You Know I Do.wav

Peak level 98.0 %
Extraction speed 1.0 X
Track quality 99.9 %
Test CRC 230D28C7
Copy CRC 230D28C7
Cannot be verified as accurate (confidence 1) [DDBB301E], AccurateRip returned [4C2C6DDE] (AR v2)
Copy OK

Track 4

Filename H:\Sket4er\The Hook – Will Grab You (1970) 2002\04 Turn Your Head.wav

Peak level 98.0 %
Extraction speed 1.4 X
Track quality 100.0 %
Test CRC 9DD22F7C
Copy CRC 9DD22F7C
Cannot be verified as accurate (confidence 1) [FA6CA76B], AccurateRip returned [9BF8324D] (AR v2)
Copy OK

Track 5

Filename H:\Sket4er\The Hook – Will Grab You (1970) 2002\05 Son Of Fantasy.wav

Peak level 98.0 %
Extraction speed 1.3 X
Track quality 100.0 %
Test CRC 8C9AB20F
Copy CRC 8C9AB20F
Cannot be verified as accurate (confidence 1) [71D7961A], AccurateRip returned [AA5D83D8] (AR v2)
Copy OK

Track 6

Filename H:\Sket4er\The Hook – Will Grab You (1970) 2002\06 Dr. B. & His Friends.wav

Peak level 98.0 %
Extraction speed 1.3 X
Track quality 99.9 %
Test CRC 132A216C
Copy CRC 132A216C
Cannot be verified as accurate (confidence 1) [F6931FE3], AccurateRip returned [299414E8] (AR v2)
Copy OK

Track 7

Filename H:\Sket4er\The Hook – Will Grab You (1970) 2002\07 Plug Your Head In.wav

Peak level 98.0 %
Extraction speed 1.5 X
Track quality 100.0 %
Test CRC 3B4F2CA9
Copy CRC 3B4F2CA9
Cannot be verified as accurate (confidence 1) [7CCE0D66], AccurateRip returned [29DD9268] (AR v2)
Copy OK

Track 8

Filename H:\Sket4er\The Hook – Will Grab You (1970) 2002\08 Everything's Groovy.wav

Peak level 98.0 %
Extraction speed 1.4 X
Track quality 100.0 %
Test CRC 984C7206
Copy CRC 984C7206
Cannot be verified as accurate (confidence 1) [0E770E4C], AccurateRip returned [098FF5A7] (AR v2)
Copy OK

Track 9

Filename H:\Sket4er\The Hook – Will Grab You (1970) 2002\09 Garbage Man.wav

Peak level 98.0 %
Extraction speed 1.5 X
Track quality 100.0 %
Test CRC 2219806A
Copy CRC 2219806A
Cannot be verified as accurate (confidence 1) [A013B7C2], AccurateRip returned [50D3CB22] (AR v2)
Copy OK

Track 10

Filename H:\Sket4er\The Hook – Will Grab You (1970) 2002\10 Dimples.wav

Peak level 98.0 %
Extraction speed 1.7 X
Track quality 100.0 %
Test CRC CCDEEF18
Copy CRC CCDEEF18
Cannot be verified as accurate (confidence 1) [1FCF0DC7], AccurateRip returned [5F79DFEF] (AR v2)
Copy OK


No tracks could be verified as accurate
You may have a different pressing from the one(s) in the database

No errors occurred

End of status report

–– CUETools DB Plugin V2.1.6

[CTDB TOCID: dVsg1Zvms6gvqZ4MXTn1NSStQ94-] found
Submit result: dVsg1Zvms6gvqZ4MXTn1NSStQ94- has been confirmed
Track | CTDB Status
1 | (5/5) Accurately ripped
2 | (5/5) Accurately ripped
3 | (5/5) Accurately ripped
4 | (5/5) Accurately ripped
5 | (5/5) Accurately ripped
6 | (5/5) Accurately ripped
7 | (5/5) Accurately ripped
8 | (5/5) Accurately ripped
9 | (5/5) Accurately ripped
10 | (5/5) Accurately ripped


==== Log checksum 16D1491162D07B69A85A25EFF226405F06BC4D3CF591875234F31EFF8830179E ====


[CUETools log; Date: 29.07.2021 15:57:01; Version: 2.1.4]
Pregap length 00:00:01.
[AccurateRip ID: 000b71bd-005a341f-6906c10a] found.
Track [ CRC | V2 ] Status
01 [1f768c35|75326af6] (0+0/1) No match
02 [b0717851|d5b5f862] (0+0/1) No match
03 [c950521d|ddbb301e] (0+0/1) No match
04 [fdcb5960|fa6ca76b] (0+0/1) No match
05 [6358a1fe|71d7961a] (0+0/1) No match
06 [f5e45ac4|f6931fe3] (0+0/1) No match
07 [4758a256|7cce0d66] (0+0/1) No match
08 [f1d8da02|0e770e4c] (0+0/1) No match
09 [5998b7c1|a013b7c2] (0+0/1) No match
10 [4e758691|1fcf0dc7] (0+0/1) No match
Offsetted by 6:
01 [4ffe9537] (0/1) No match (V2 was not tested)
02 [c9013cb9] (0/1) No match (V2 was not tested)
03 [38ee7449] (0/1) No match (V2 was not tested)
04 [a0e70cba] (0/1) No match (V2 was not tested)
05 [9d0fdc8a] (0/1) No match (V2 was not tested)
06 [2aa1109e] (0/1) No match (V2 was not tested)
07 [f5c44ad0] (0/1) No match (V2 was not tested)
08 [edc602e8] (0/1) No match (V2 was not tested)
09 [0b6dbc21] (0/1) No match (V2 was not tested)
10 [8f722339] (0/1) No match (V2 was not tested)

Track Peak [ CRC32 ] [W/O NULL] [ LOG ]
– 98,0 [C8491743] [F3E05B70]
01 98,0 [FEA8CCB8] [173E6306] CRC32
02 98,0 [C41E3158] [0F742381] CRC32
03 98,0 [230D28C7] [AA874EA8] CRC32
04 98,0 [9DD22F7C] [CDEC3C84] CRC32
05 98,0 [8C9AB20F] [EF7B84E2] CRC32
06 98,0 [132A216C] [BDBA214B] CRC32
07 98,0 [3B4F2CA9] [E7A5310D] CRC32
08 98,0 [984C7206] [DD2A0D80] CRC32
09 98,0 [2219806A] [D86D8DB3] CRC32
10 98,0 [CCDEEF18] [542222E7] CRC32


The Hook - Will Grab You (1968)

All thanks go to Sket4er

Download The Hook - Will Grab You (1968):