Subcategories
Tags
Language
Tags

The Rolling Stones - Stripped Companion (1998)

Posted By: v3122
The Rolling Stones - Stripped Companion (1998)

The Rolling Stones - Stripped Companion (1995)
Flac(Image) + Cue & MP3 CBR 320Kbps
RSTS | ~ 484 or 175 Mb | Artwork < 1 Mb
Blues Rock / Rock & Roll / Classic Rock

~ Various studio and live dates 1993-1995 ~

The Rolling Stones - Stripped Companion (1998):

Tracklist:

Toshiba Studio Sessions, Tokyo, March 3-5, 1995

1) Honest I Do
2) Let's Spend the Night Together
3) No Expectations
4) Beast of Burden
5) Memory Motel
6) Let it Bleed

Plus …

7) Tumbling Dice - Backstage Rehearsals - Olympia, Paris - July 2, 1995
8) Gimme Shelter - Paradiso, Amsterdam - May 26, 1995
9) Live With Me - Brixton Academy, London - July 19, 1995
10) Black Limousine - Brixton Academy, London - July 19, 1995
11) All Down the Line - Paradiso, Amsterdam - May 27, 1995
12) Dead Flowers - Paradiso, Amsterdam - May 27, 1995
13) Shine a Light - Paradiso, Amsterdam - May 27, 1995
14) Sweet Virginia - Brixton Academy, London - July 19, 1995
15) Rip This Joint - Brixton Academy, London - July 19, 1995
16) The Storm - Voodoo Lounge Studio Session 1993/1994
17) So Young - Voodoo Lounge Studio Session 1993/1994
18) Jump On Top of Me - Voodoo Lounge Studio Session 1993/1994
19) I'm Gonna Drive - Voodoo Lounge Studio Session 1993/1994

[CUETools log; Date: 12.05.2021 20:30:01; Version: 2.1.4]
[AccurateRip ID: 003450b4-02d83401-f5114f13] found.
Track [ CRC | V2 ] Status
01 [dcc8a33d|eab33269] (0+0/3) No match
02 [ac10c254|a49ac223] (0+0/3) No match
03 [4c6a65d7|5c767a92] (0+0/3) No match
04 [78178ef6|ab434634] (0+0/3) No match
05 [1555b9f8|ab492314] (0+0/3) No match
06 [36ded280|d6430613] (0+0/3) No match
07 [3db20b48|8bf709d8] (0+0/3) No match
08 [aa5f4590|03e0b6e6] (0+0/3) No match
09 [1db076b1|9109b4f1] (0+0/3) No match
10 [06024036|d6f9e60e] (0+0/3) No match
11 [e4545497|58ae89be] (0+0/3) No match
12 [d5db1a90|a896eeee] (0+0/3) No match
13 [40a12f27|15e0b002] (0+0/3) No match
14 [4cd79bad|0174ef17] (0+0/3) No match
15 [09671785|e6e68737] (0+0/3) No match
16 [76464a76|77c392a0] (0+0/3) No match
17 [b7d40797|2d2a0fd5] (0+0/3) No match
18 [b5a07e08|b345bfc6] (0+0/3) No match
19 [1727dd46|43a04549] (0+0/3) No match
Offsetted by -30:
01 [06c5fa89] (1/3) Accurately ripped
02 [37c86ebe] (1/3) Accurately ripped
03 [85d4ab4f] (1/3) Accurately ripped
04 [4bc450ae] (1/3) Accurately ripped
05 [9512ef74] (1/3) Accurately ripped
06 [3a143710] (1/3) Accurately ripped
07 [f2a0a7f0] (1/3) Accurately ripped
08 [95423efe] (1/3) Accurately ripped
09 [9f9662b4] (1/3) Accurately ripped
10 [2422cf86] (1/3) Accurately ripped
11 [fbffa464] (1/3) Accurately ripped
12 [961fa1f9] (1/3) Accurately ripped
13 [e7358999] (1/3) Accurately ripped
14 [87dc9232] (1/3) Accurately ripped
15 [4ee68d2d] (1/3) Accurately ripped
16 [f3586eea] (1/3) Accurately ripped
17 [a4e2f97b] (1/3) Accurately ripped
18 [6a8122f8] (1/3) Accurately ripped
19 [4639dcb4] (1/3) Accurately ripped

Track Peak [ CRC32 ] [W/O NULL]
– 100,0 [814316C9] [BAC9E1EF]
01 100,0 [196E47F9] [23FC7E0B]
02 100,0 [06D9692A] [1FC87788]
03 100,0 [505EF7AB] [180BFB03]
04 100,0 [7BD2D94E] [63EC8CCA]
05 100,0 [9324CA45] [1343EE69]
06 99,9 [FBB49CB7] [21C69646]
07 100,0 [A7714689] [3F971675]
08 100,0 [F0BE33B1] [8EB1D98B]
09 99,9 [39A24B96] [E4738769]
10 100,0 [22629CA0] [09AA040C]
11 100,0 [DCDA9B40] [8E22649C]
12 100,0 [BA3CFECE] [CA82923A]
13 100,0 [04471444] [64A70623]
14 100,0 [DE95F6BB] [9B3C1245]
15 100,0 [F7687E43] [26495B42]
16 99,9 [FA526885] [F19987A8]
17 100,0 [4C10212F] [955C5E49]
18 99,9 [328A538B] [E615F078]
19 100,0 [B6D5F091] [64DF1881]


The Rolling Stones - Stripped Companion (1998)

All thanks go to the original releaser

Rolling Stones in my Blog

Download The Rolling Stones - Stripped Companion (1998):