Subcategories

The Royal Danish Orchestra, Thomas Søndergård - Poul Ruders: Kafka’s Trial (2006)

Posted By: tirexiss
The Royal Danish Orchestra, Thomas Søndergård - Poul Ruders: Kafka’s Trial (2006)

The Royal Danish Orchestra, Thomas Søndergård - Poul Ruders: Kafka’s Trial (2006)
EAC | FLAC (image+.cue, log) | Covers Included | 02:05:17 | 498 MB
Genre: Classical, Opera | Label: Dacapo | Catalog: 8.226042-43

Although it is an unfinished and in many ways defective novel, Franz Kafka's The Trial has fascinated readers for more than 80 years. Several attempts have been made to film it – notably, by director Orson Welles – and also to turn it into an opera. Danish composer Poul Ruders is the latest but probably not the last person to do so. His librettist is Paul Bentley, who also provided Ruders with an excellent libretto for his compelling operatic version of Margaret Atwood's The Handmaid's Tale. Great literature doesn't necessarily make great operas, but one shouldn't fault Ruders for setting his sights high.
This is not The Trial, however, but Kafka's Trial. Sticking quite closely to Kafka's original plot, Bentley has interlaced it with incidents from Kafka's own life – notably, his engagement to Felice Bauer, which was finally broken off when it was revealed that Kafka also was involved with Felice's friend, Greta Bloch. Bentley describes Kafka's meeting with the two women as an "unofficial tribunal," of which the outcome was that he was "hugely humiliated and hugely relieved." He forthwith returned to Prague and began writing The Trial. There's more to his unfinished novel than a tale of two women scorned, of course, but some of the novel's surreal character might be explained by Kafka's bizarre personal life.
One must not forget that The Trial is a comedy, albeit one of the blackest hue. Bentley's libretto makes that clear. For example, he introduces a group of "zanies" who arrange the sets and the props, and even participate in the action. By the same token, Ruders's music is comically grotesque, and as antic as a Keystone Kops chase scene. In fact, Kafka's Trial becomes something of a marathon, at least for this listener. This is a two-hour opera in one act (with a "prelude," really more of a prologue) with no intermissions. Pity tenor Johnny van Hal who plays the dual role of Kafka and Josef K. He is seldom (if ever) offstage, and given the difficulty of Ruders's high and awkward vocal writing, and the emotional intensity of the role, I am guessing that few singers will want to take on this challenge. I rather like this opera, but the demands it makes on performers and audiences alike don't bode well for it.
This impactful world première recording is taken from live performances in March and April of 2005. Hal's partners in extremis include soprano Gisela Stille and alto Marianne Rørholm. Both sound as frayed and frazzled as the tenor. Most of the other cast members sing multiple roles as well, so nobody gets very much rest in this opera. The presentation on CD is excellent (there is a nearly 300-page booklet), but this seems like an opera which needs to be seen to be appreciated fully, so I am hoping that there will be a DVD release somewhere down the road.
The Handmaid's Tale was a remarkable piece of work. Kafka's Trial is no less remarkable, but more has been grasped than actually has been attained, this time around.

The Royal Danish Orchestra, Thomas Søndergård - Poul Ruders: Kafka’s Trial (2006)

Track List:

Poul Ruders
Kafka’s Trial

An Opera in One Act with a Prelude
Based on the Novel by Franz Kafka
Libretto by Paul Bentley

CD 1:
[1] Prelude
[2]-[12] Scene 1 - Scene 6 (Part One)

Exact Audio Copy V1.3 from 2. September 2016

EAC extraction logfile from 20. January 2018, 1:57

The Chorus of the Royal Danish Opera, The Royal Danish Orchestra, Thomas Søndergård / Ruders - Kafka's Trial - CD1

Used drive : PLDS DVD-RW DU8A6SH Adapter: 1 ID: 0

Read mode : Secure
Utilize accurate stream : Yes
Defeat audio cache : Yes
Make use of C2 pointers : No

Read offset correction : 6
Overread into Lead-In and Lead-Out : No
Fill up missing offset samples with silence : Yes
Delete leading and trailing silent blocks : No
Null samples used in CRC calculations : Yes
Used interface : Native Win32 interface for Win NT & 2000

Used output format : User Defined Encoder
Selected bitrate : 128 kBit/s
Quality : High
Add ID3 tag : No
Command line compressor : C:\Program Files (x86)\Exact Audio Copy\Flac\flac.exe
Additional command line options : -V -8 -T "Date=%year%" -T "Genre=%genre%" %source%


TOC of the extracted CD

Track | Start | Length | Start sector | End sector
––––––––––––––––––––––––––––-
1 | 0:00.00 | 26:02.71 | 0 | 117220
2 | 26:02.71 | 8:22.10 | 117221 | 154880
3 | 34:25.06 | 1:48.12 | 154881 | 162992
4 | 36:13.18 | 2:32.25 | 162993 | 174417
5 | 38:45.43 | 0:35.63 | 174418 | 177105
6 | 39:21.31 | 7:22.15 | 177106 | 210270
7 | 46:43.46 | 0:24.23 | 210271 | 212093
8 | 47:07.69 | 8:43.21 | 212094 | 251339
9 | 55:51.15 | 1:19.47 | 251340 | 257311
10 | 57:10.62 | 2:27.66 | 257312 | 268402
11 | 59:38.53 | 0:38.26 | 268403 | 271278
12 | 60:17.04 | 4:04.52 | 271279 | 289630


Range status and errors

Selected range

Filename C:\temp\Ruders - Kafka's Trial\CD1\Ruders - Kafka's Trial - CD1.wav

Peak level 100.0 %
Extraction speed 4.1 X
Range quality 100.0 %
Test CRC F280A542
Copy CRC F280A542
Copy OK

No errors occurred


AccurateRip summary

Track 1 accurately ripped (confidence 1) [3CA0D57D] (AR v2)
Track 2 accurately ripped (confidence 1) [5C42DD22] (AR v2)
Track 3 accurately ripped (confidence 1) [91EFB8B8] (AR v2)
Track 4 accurately ripped (confidence 1) [83C4C9C7] (AR v2)
Track 5 accurately ripped (confidence 1) [ADF978DD] (AR v2)
Track 6 accurately ripped (confidence 1) [DF2BCA34] (AR v2)
Track 7 accurately ripped (confidence 1) [15660CAF] (AR v2)
Track 8 accurately ripped (confidence 1) [8D8A4B3B] (AR v2)
Track 9 accurately ripped (confidence 1) [E80180E2] (AR v2)
Track 10 accurately ripped (confidence 1) [AA2D50D2] (AR v2)
Track 11 accurately ripped (confidence 1) [049BACFD] (AR v2)
Track 12 accurately ripped (confidence 1) [DF1CB1AA] (AR v2)

All tracks accurately ripped

End of status report

==== Log checksum 4963780B0C0100D4C13E44E248BBFCFB376D2F9891C6B91DD86D6F4C09C3EB79 ====

[CUETools log; Date: 31.01.2018 11:05:07; Version: 2.1.5]
[CTDB TOCID: 9WS.mM_LYBVy1j5jGJp1kTmkykA-] found.
Track | CTDB Status
1 | (1/1) Accurately ripped
2 | (1/1) Accurately ripped
3 | (1/1) Accurately ripped
4 | (1/1) Accurately ripped
5 | (1/1) Accurately ripped
6 | (1/1) Accurately ripped
7 | (1/1) Accurately ripped
8 | (1/1) Accurately ripped
9 | (1/1) Accurately ripped
10 | (1/1) Accurately ripped
11 | (1/1) Accurately ripped
12 | (1/1) Accurately ripped
[AccurateRip ID: 0026dd05-01447105-ad0f150c] found.
Track [ CRC | V2 ] Status
01 [a82af3af|3ca0d57d] (0+1/1) Accurately ripped
02 [e5fb843f|5c42dd22] (0+1/1) Accurately ripped
03 [642a5993|91efb8b8] (0+1/1) Accurately ripped
04 [92544f0e|83c4c9c7] (0+1/1) Accurately ripped
05 [ee9dd203|adf978dd] (0+1/1) Accurately ripped
06 [3828ee39|df2bca34] (0+1/1) Accurately ripped
07 [80bb147d|15660caf] (0+1/1) Accurately ripped
08 [272f40b7|8d8a4b3b] (0+1/1) Accurately ripped
09 [07cec5b0|e80180e2] (0+1/1) Accurately ripped
10 [a843c311|aa2d50d2] (0+1/1) Accurately ripped
11 [b8cd0dce|049bacfd] (0+1/1) Accurately ripped
12 [b6205408|df1cb1aa] (0+1/1) Accurately ripped

Track Peak [ CRC32 ] [W/O NULL] [ LOG ]
– 99,9 [F280A542] [DBDFDD9E] CRC32
01 96,6 [9A98BE9D] [028EFB93]
02 90,6 [C04405B4] [F65E8BF9]
03 22,6 [8A3B5BA5] [18188F3F]
04 50,1 [FA23C067] [DFADA7BD]
05 14,0 [22F72AED] [861930EC]
06 99,9 [3551E664] [5412D5A8]
07 18,0 [510D75CF] [DE6CBD03]
08 99,9 [8CD72943] [BF0D50D4]
09 35,8 [9A7B539F] [B6B1FEB8]
10 24,5 [EB636C5C] [AF203DE9]
11 14,5 [6FA5226B] [76B8815D]
12 99,9 [98A5E651] [100A5827]

CD 2:
[1]-[15] Scene 6 (Part Two) - Scene 13

Exact Audio Copy V1.3 from 2. September 2016

EAC extraction logfile from 20. January 2018, 13:06

The Chorus of the Royal Danish Opera, The Royal Danish Orchestra, Thomas Søndergård / Ruders - Kafka's Trial - CD2

Used drive : PLDS DVD-RW DU8A6SH Adapter: 1 ID: 0

Read mode : Secure
Utilize accurate stream : Yes
Defeat audio cache : Yes
Make use of C2 pointers : No

Read offset correction : 6
Overread into Lead-In and Lead-Out : No
Fill up missing offset samples with silence : Yes
Delete leading and trailing silent blocks : No
Null samples used in CRC calculations : Yes
Used interface : Native Win32 interface for Win NT & 2000

Used output format : User Defined Encoder
Selected bitrate : 128 kBit/s
Quality : High
Add ID3 tag : No
Command line compressor : C:\Program Files (x86)\Exact Audio Copy\Flac\flac.exe
Additional command line options : -V -8 -T "Date=%year%" -T "Genre=%genre%" %source%


TOC of the extracted CD

Track | Start | Length | Start sector | End sector
––––––––––––––––––––––––––––-
1 | 0:00.00 | 2:46.12 | 0 | 12461
2 | 2:46.12 | 0:46.63 | 12462 | 15974
3 | 3:33.00 | 8:13.28 | 15975 | 52977
4 | 11:46.28 | 0:14.72 | 52978 | 54099
5 | 12:01.25 | 8:52.30 | 54100 | 94029
6 | 20:53.55 | 1:03.17 | 94030 | 98771
7 | 21:56.72 | 3:58.11 | 98772 | 116632
8 | 25:55.08 | 0:11.29 | 116633 | 117486
9 | 26:06.37 | 7:41.45 | 117487 | 152106
10 | 33:48.07 | 0:36.74 | 152107 | 154880
11 | 34:25.06 | 3:30.31 | 154881 | 170661
12 | 37:55.37 | 2:03.55 | 170662 | 179941
13 | 39:59.17 | 6:03.00 | 179942 | 207166
14 | 46:02.17 | 9:53.32 | 207167 | 251673
15 | 55:55.49 | 5:00.47 | 251674 | 274220


Range status and errors

Selected range

Filename C:\temp\Ruders - Kafka's Trial\CD2\Ruders - Kafka's Trial - CD2.wav

Peak level 100.0 %
Extraction speed 3.9 X
Range quality 100.0 %
Test CRC F9A63B0A
Copy CRC F9A63B0A
Copy OK

No errors occurred


AccurateRip summary

Track 1 accurately ripped (confidence 1) [56BF5B2F] (AR v2)
Track 2 accurately ripped (confidence 1) [A901C0C8] (AR v2)
Track 3 accurately ripped (confidence 1) [4640B5D4] (AR v2)
Track 4 accurately ripped (confidence 1) [461557F6] (AR v2)
Track 5 accurately ripped (confidence 1) [50E0E62A] (AR v2)
Track 6 accurately ripped (confidence 1) [D57EF252] (AR v2)
Track 7 accurately ripped (confidence 1) [15AF985A] (AR v2)
Track 8 accurately ripped (confidence 1) [E1BF312E] (AR v2)
Track 9 accurately ripped (confidence 1) [950E8413] (AR v2)
Track 10 accurately ripped (confidence 1) [C9C93AAA] (AR v2)
Track 11 accurately ripped (confidence 1) [A08FE0A5] (AR v2)
Track 12 accurately ripped (confidence 1) [EC9D0F0C] (AR v2)
Track 13 accurately ripped (confidence 1) [41F42A8A] (AR v2)
Track 14 accurately ripped (confidence 1) [DCE9A2CB] (AR v2)
Track 15 accurately ripped (confidence 1) [36EE465B] (AR v2)

All tracks accurately ripped

End of status report

==== Log checksum D0341545E02F87E744C481B7D4F8C5C6CE54E57473E60418C5BBA27C43CF0A97 ====

[CUETools log; Date: 31.01.2018 11:05:27; Version: 2.1.5]
[CTDB TOCID: 0XLk16VjD1QZoEry9BsBW7BhTtk-] found.
Track | CTDB Status
1 | (1/1) Accurately ripped
2 | (1/1) Accurately ripped
3 | (1/1) Accurately ripped
4 | (1/1) Accurately ripped
5 | (1/1) Accurately ripped
6 | (1/1) Accurately ripped
7 | (1/1) Accurately ripped
8 | (1/1) Accurately ripped
9 | (1/1) Accurately ripped
10 | (1/1) Accurately ripped
11 | (1/1) Accurately ripped
12 | (1/1) Accurately ripped
13 | (1/1) Accurately ripped
14 | (1/1) Accurately ripped
15 | (1/1) Accurately ripped
[AccurateRip ID: 001dcd43-0156f5c4-c60e480f] found.
Track [ CRC | V2 ] Status
01 [65bebece|56bf5b2f] (0+1/1) Accurately ripped
02 [c3ff94bc|a901c0c8] (0+1/1) Accurately ripped
03 [cfbba4b9|4640b5d4] (0+1/1) Accurately ripped
04 [c59092e1|461557f6] (0+1/1) Accurately ripped
05 [193989d4|50e0e62a] (0+1/1) Accurately ripped
06 [95ec5c70|d57ef252] (0+1/1) Accurately ripped
07 [d4d69b7b|15af985a] (0+1/1) Accurately ripped
08 [07b415fa|e1bf312e] (0+1/1) Accurately ripped
09 [4bda589f|950e8413] (0+1/1) Accurately ripped
10 [b19b0335|c9c93aaa] (0+1/1) Accurately ripped
11 [8741d9dc|a08fe0a5] (0+1/1) Accurately ripped
12 [54744717|ec9d0f0c] (0+1/1) Accurately ripped
13 [b9e6f4df|41f42a8a] (0+1/1) Accurately ripped
14 [a17ece81|dce9a2cb] (0+1/1) Accurately ripped
15 [4d9eccab|36ee465b] (0+1/1) Accurately ripped

Track Peak [ CRC32 ] [W/O NULL] [ LOG ]
– 100,0 [F9A63B0A] [D91AAF93] CRC32
01 56,2 [CB708294] [4EE2C977]
02 7,4 [BF259862] [E93CB381]
03 78,3 [476FC00A] [D784C036]
04 11,8 [5DC3920F] [F970476F]
05 72,1 [86557773] [4015FFB0]
06 21,1 [9C559431] [2E10DFC1]
07 48,0 [EA8DDBE1] [A5031E0F]
08 8,2 [B6B7F37D] [EA4DFE77]
09 49,8 [A6C87C29] [3C941104]
10 13,6 [B45230B0] [5D0F168F]
11 73,2 [2D5853D8] [DD2EE485]
12 28,6 [D30F7120] [28A977D1]
13 42,6 [1FC90AF5] [E90B2D8D]
14 34,3 [BF87455F] [D34BDB1D]
15 100,0 [FABA274B] [148064A4]

Performers:
Josef K. Johnny van Hal tenor
Frøken Bürstner/Felice Bauer Gisela Stille soprano
Frøken Montag/Greta Bloch/Leni Marianne Rørholm alto
Inspektøren/Byretsdommeren/Titorelli Gert Henning-Jensen tenor
Vicedirektør/Forretningsmand Block Michael Kristensen tenor
Forhørsleder/Onkel Albert Johan Reuter baritone
Fangevogter Franz Hans Lawaetz bass
Fangevogter Willem Anders Jakobsson bass
Bankdirektør/Advokat Huld Bo Anker Hansen baritone
Rengøringskone/Den Pukkelryggede Hanne Fischer mezzo-soprano
Prygler/Kapellan Ole Hedegaard tenor

The Chorus of the Royal Danish Opera
The Royal Danish Orchestra
Thomas Søndergård conductor

Thanks to the Original ripper A-Z!

Download: