Subcategories

The Salomon String Quartet - Haydn: Prussian Quartets Op.50 Nos 1-3 (1993)

Posted By: murena
The Salomon String Quartet - Haydn: Prussian Quartets Op.50 Nos 1-3 (1993)

The Salomon String Quartet - Haydn: Prussian Quartets Op.50 Nos 1-3 (1993)
EAC Rip | FLAC (Tracks+.cue, log) | 01:15:18 min | Scans included | 344 mb
Genre: Classical / Label: Hyperion

On 5 April 1784 Joseph Haydn wrote to the Viennese music publishers Artaria and Co accepting an offer of three hundred florins for a set of new string quartets, which he thought would be finished that July. In fact Artaria had to wait three years, until July 1787, before they received all six of the set that was to become known as Opus 50.

Opus 50 was the first complete set of quartets Haydn had published for five years, since the Opus 33 Quartets of 1782. They were eagerly anticipated by chamber music enthusiasts all over Europe and were quickly republished by Seiber in Paris, by Hummel in Berlin, and by Forster in London. As early as 1783 a writer in Cramer's Magazin der Musik praised Haydn's 'wonderful sonatas' that had 'provided many a piano player with antispasmotica against sorrow and misfortune', and requested something similar for 'languishing violinists.' Haydn was commissioned in 1784 by a Spanish patron to write a set of short quartets, but only seems to have been completed one of them, which was published in 1785 as Opus 42. In the next year he received another Spanish commission, for a set of orchestral pieces to be performed in a Cádiz church on Good Friday. Haydn's own string quartet arrangement of The Seven Last Words, as the work was called, was published in 1787 as Opus 51 and quickly became an outstanding success.

Tracklist:

String Quartet in B flat major Op 50 No 1 (24'31)
1. Allegro [9'21]
2. Adagio [7'27]
3. Menuetto: Poco allegretto [2'43]
4. Finale: Vivace assai [4'40]

String Quartet in C major Op 50 No 2 (26'27)
5. Vivace [10'12]
6. Adagio [4'38]
7. Menuetto: Allegro [3'59]
8. Finale: Vivace assai [7'21]

String Quartet in E flat major Op 50 No 3 (23'41)
9. Allegro con brio [7'53]
10. Andante piu tosto allegretto [6'34]
11. Menuetto: Allegretto [3'52]
12. Finale: Presto [5'02]

Exact Audio Copy V1.0 beta 3 from 29. August 2011

EAC extraction logfile from 22. May 2012, 7:19

Salomon String Quartet / Haydn- String Quartets Op. 50 Nos. 1-3

Used drive : PLDS BD-RE DH-8B2SH Adapter: 0 ID: 0

Read mode : Secure
Utilize accurate stream : Yes
Defeat audio cache : Yes
Make use of C2 pointers : No

Read offset correction : 6
Overread into Lead-In and Lead-Out : No
Fill up missing offset samples with silence : Yes
Delete leading and trailing silent blocks : No
Null samples used in CRC calculations : Yes
Used interface : Native Win32 interface for Win NT & 2000
Gap handling : Not detected, thus appended to previous track

Used output format : User Defined Encoder
Selected bitrate : 768 kBit/s
Quality : High
Add ID3 tag : No
Command line compressor : C:\Program Files (x86)\Exact Audio Copy\FLAC\FLAC.EXE
Additional command line options : -6 -V -T "ARTIST=%artist%" -T "TITLE=%title%" -T "ALBUM=%albumtitle%" -T "DATE=%year%" -T "TRACKNUMBER=%tracknr%" -T "GENRE=%genre%" -T "COMMENT=%comment%" -T "BAND=%albuminterpret%" -T "ALBUMARTIST=%albuminterpret%" -T "COMPOSER=%composer%" %haslyrics%–tag-from-file=LYRICS="%lyricsfile%"%haslyrics% -T "DISCNUMBER=%cdnumber%" -T "TOTALDISCS=%totalcds%" -T "TOTALTRACKS=%numtracks%" %hascover%–picture="%coverfile%"%hascover% %source% -o %dest%


TOC of the extracted CD

Track | Start | Length | Start sector | End sector
––––––––––––––––––––––––––––-
1 | 0:00.00 | 9:32.52 | 0 | 42951
2 | 9:32.52 | 7:33.15 | 42952 | 76941
3 | 17:05.67 | 2:48.63 | 76942 | 89604
4 | 19:54.55 | 4:52.62 | 89605 | 111566
5 | 24:47.42 | 10:19.35 | 111567 | 158026
6 | 35:07.02 | 4:44.48 | 158027 | 179374
7 | 39:51.50 | 4:00.40 | 179375 | 197414
8 | 43:52.15 | 7:33.70 | 197415 | 231459
9 | 51:26.10 | 8:01.67 | 231460 | 267601
10 | 59:28.02 | 6:41.25 | 267602 | 297701
11 | 66:09.27 | 3:55.63 | 297702 | 315389
12 | 70:05.15 | 5:12.47 | 315390 | 338836


Track 1

Filename C:\EAC\Haydn- String Quartets Op. 50 Nos. 1-3\Haydn- String Quartets Op. 50 Nos. 1-3\01 String Quartet in B flat major- Allegro.wav

Peak level 70.9 %
Extraction speed 2.2 X
Track quality 99.9 %
Test CRC B8EF044D
Copy CRC B8EF044D
Track not present in AccurateRip database
Copy OK

Track 2

Filename C:\EAC\Haydn- String Quartets Op. 50 Nos. 1-3\Haydn- String Quartets Op. 50 Nos. 1-3\02 String Quartet in B flat major- Adagio.wav

Peak level 41.3 %
Extraction speed 2.9 X
Track quality 100.0 %
Test CRC 2E481886
Copy CRC 2E481886
Track not present in AccurateRip database
Copy OK

Track 3

Filename C:\EAC\Haydn- String Quartets Op. 50 Nos. 1-3\Haydn- String Quartets Op. 50 Nos. 1-3\03 String Quartet in B flat major- Menuetto (Poco Allegretto).wav

Peak level 45.9 %
Extraction speed 2.7 X
Track quality 100.0 %
Test CRC EE4F4D83
Copy CRC EE4F4D83
Track not present in AccurateRip database
Copy OK

Track 4

Filename C:\EAC\Haydn- String Quartets Op. 50 Nos. 1-3\Haydn- String Quartets Op. 50 Nos. 1-3\04 String Quartet in B flat major- Finale (Vivace assai).wav

Peak level 87.8 %
Extraction speed 2.4 X
Track quality 99.9 %
Test CRC 1DF52617
Copy CRC 1DF52617
Track not present in AccurateRip database
Copy OK

Track 5

Filename C:\EAC\Haydn- String Quartets Op. 50 Nos. 1-3\Haydn- String Quartets Op. 50 Nos. 1-3\05 String Quartet in C major- Vivace.wav

Peak level 57.7 %
Extraction speed 3.2 X
Track quality 99.9 %
Test CRC 2F59B48B
Copy CRC 2F59B48B
Track not present in AccurateRip database
Copy OK

Track 6

Filename C:\EAC\Haydn- String Quartets Op. 50 Nos. 1-3\Haydn- String Quartets Op. 50 Nos. 1-3\06 String Quartet in C major- Adagio.wav

Peak level 43.8 %
Extraction speed 3.7 X
Track quality 100.0 %
Test CRC 7255EADE
Copy CRC 7255EADE
Track not present in AccurateRip database
Copy OK

Track 7

Filename C:\EAC\Haydn- String Quartets Op. 50 Nos. 1-3\Haydn- String Quartets Op. 50 Nos. 1-3\07 String Quartet in C major- Menuetto (Allegro).wav

Peak level 49.2 %
Extraction speed 3.6 X
Track quality 100.0 %
Test CRC FDB203BC
Copy CRC FDB203BC
Track not present in AccurateRip database
Copy OK

Track 8

Filename C:\EAC\Haydn- String Quartets Op. 50 Nos. 1-3\Haydn- String Quartets Op. 50 Nos. 1-3\08 String Quartet in C major- Finale (Vivace assai).wav

Peak level 47.1 %
Extraction speed 4.2 X
Track quality 100.0 %
Test CRC 145A285B
Copy CRC 145A285B
Track not present in AccurateRip database
Copy OK

Track 9

Filename C:\EAC\Haydn- String Quartets Op. 50 Nos. 1-3\Haydn- String Quartets Op. 50 Nos. 1-3\09 String Quartet in E flat major- Allegro con brio.wav

Peak level 65.2 %
Extraction speed 4.4 X
Track quality 100.0 %
Test CRC 1844EBF4
Copy CRC 1844EBF4
Track not present in AccurateRip database
Copy OK

Track 10

Filename C:\EAC\Haydn- String Quartets Op. 50 Nos. 1-3\Haydn- String Quartets Op. 50 Nos. 1-3\10 String Quartet in E flat major- Andante piu tosto allegretto.wav

Peak level 52.6 %
Extraction speed 4.6 X
Track quality 100.0 %
Test CRC 8D12167F
Copy CRC 8D12167F
Track not present in AccurateRip database
Copy OK

Track 11

Filename C:\EAC\Haydn- String Quartets Op. 50 Nos. 1-3\Haydn- String Quartets Op. 50 Nos. 1-3\11 String Quartet in E flat major- Menuetto- allegretto.wav

Peak level 64.4 %
Extraction speed 4.3 X
Track quality 100.0 %
Test CRC 2482E260
Copy CRC 2482E260
Track not present in AccurateRip database
Copy OK

Track 12

Filename C:\EAC\Haydn- String Quartets Op. 50 Nos. 1-3\Haydn- String Quartets Op. 50 Nos. 1-3\12 String Quartet in E flat major- Finale- Presto.wav

Peak level 73.0 %
Extraction speed 4.7 X
Track quality 100.0 %
Test CRC 1BF52003
Copy CRC 1BF52003
Track not present in AccurateRip database
Copy OK


None of the tracks are present in the AccurateRip database

No errors occurred

End of status report

Thanks to the original ripper.