Tags
Language
Tags

The Savage Rose - Roots Of The Wasteland (2014)

Posted By: v3122
The Savage Rose - Roots Of The Wasteland (2014)

The Savage Rose - Roots Of The Wasteland (2014)
EAC | Flac(Image) + Cue + Log & MP3 CBR 320Kbps
Target, TargetCD 1420 | ~ 263 or 104 Mb | Scans
Art Rock / Pop Rock

One of the most well-known rock groups from Continental Europe, Denmark's Savage Rose recorded a wealth of intriguing and eclectic progressive rock in the late '60s and '70s. In their early work, one hears faint echoes of the Airplane, Doors, Pink Floyd, and other psychedelic heavyweights combined with classical jazz and Danish-Euro folk elements. Their arrangements rely heavily on an incandescent, watery organ that sounds like nothing so much as psychedelic aquarium music. The most striking aspect of the band's sound, however, was the vocals of lead singer Annisette. Her childish wispy and sensual phrasing can suddenly break into jarring, almost histrionic wailing, like a Janis Joplin with Yoko Ono-isms, and eerily foreshadows Kate Bush's style.

Stars in their native land, Savage Rose also achieved a bit of underground success abroad, and several of their albums were released in North America. Between 1968 and 1978, the group released nine albums, moving from vaguely psychedelic rock and the heavily gospel-influenced Refugee to the nearly classical ballet score Dodens Triumf and the folky, nearly all-Danish Solen Var Ogsa Din (their first eight albums were sung entirely in English).

Always a radical band – the Black Panthers even invited the group to play at a benefit for Bobby Seale after hearing one of Savage Rose's records – they took the extremely radical step of withdrawing from the studio entirely by the end of 1970s to focus on using their music to support leftist political causes. Although they continued to make music and perform, they were often heard at benefits and free concerts, actually playing in Lebanese hospitals, schools, and refugee camps at the P.L.O.'s invitation. They eased back into recording in the early '80s with Danish-language efforts on small labels, eventually getting back into the mainstream music business with established distribution. Their mid-'90s album, Black Angel, was their first English-language recording in many years, and a substantial Danish hit. By this time the only remaining members from the original band were Thomas Koppel and Annisette (now his wife); Koppel also records and composes symphonic music as a solo artist.

by Richie Unterberger, AMG
The Savage Rose - Roots Of The Wasteland (2014):

The Savage Rose - Roots Of The Wasteland (2014)

Tracklist:

01. The Joker [0:03:41.27]
02. Dear Little Children Of Mine [0:03:54.67]
03. You'll Know In The Morning [0:04:49.35]
04. The Shoeshine Boy Is dead [0:04:49.29]
05. Refugee [0:05:08.73]
06. So Long Gone [0:03:39.52]
07. Black Angel [0:03:26.58]
08. Mr. World [0:03:50.26]
09. The Storm [0:04:32.27]
10. Waste And Lullaby [0:03:01.51]

Musicians:

Annisette Koppel: Lead vocal
Amina Carsche Nissen: Choir
Maja Rosa Koppel: Choir
Anders Holm: Drums, percussion
Jakob Falgren: Bass, Moog
Palle Hjorth: Piano, Hammond, keys, Mellotron
Rune Kjeldsen: Guitars, mandolin
Frank Hasselstrшm: Trombone, trumpet, Mellotron, keys
(Piano on Wasteland Lullaby & Mr. World)


Exact Audio Copy V0.99 prebeta 5 from 4. May 2009

Отчёт EAC об извлечении, выполненном 28. сентября 2014, 16:59

The Savage Rose / Roots Of The Wasteland

Дисковод: PIONEER BD-RW BDR-208M Adapter: 3 ID: 0

Режим чтения : Достоверность
Использование точного потока : Да
Отключение кэша аудио : Да
Использование указателей C2 : Нет

Коррекция смещения при чтении : 667
Способность читать области Lead-in и Lead-out : Нет
Заполнение пропущенных сэмплов тишиной : Да
Удаление блоков с тишиной в начале и конце : Нет
При вычислениях CRC использовались нулевые сэмплы : Нет
Интерфейс : Установленный внешний ASPI-интерфейс

Выходной формат : Пользовательский кодировщик
Выбранный битрейт : 1024 kBit/s
Качество : Высокий
Добавление ID3-тэга : Нет
Утилита сжатия : C:\Program Files (x86)\Exact Audio Copy\Flac\flac.exe
Дополнительные параметры : -V -8 -T "Date=%year%" -T "Genre=%genre%" %source%


TOC извлечённого CD

Трек | Старт | Длительность | Начальный сектор | Конечный сектор
––––––––––––––––––––––––––––––––––-
1 | 0:00.00 | 3:41.27 | 0 | 16601
2 | 3:41.27 | 3:54.67 | 16602 | 34218
3 | 7:36.19 | 4:49.35 | 34219 | 55928
4 | 12:25.54 | 4:49.29 | 55929 | 77632
5 | 17:15.08 | 5:08.73 | 77633 | 100805
6 | 22:24.06 | 3:39.52 | 100806 | 117282
7 | 26:03.58 | 3:26.58 | 117283 | 132790
8 | 29:30.41 | 3:50.26 | 132791 | 150066
9 | 33:20.67 | 4:32.27 | 150067 | 170493
10 | 37:53.19 | 3:01.51 | 170494 | 184119


Характеристики диапазона извлечения и сообщения об ошибках

Выбранный диапазон

Имя файла E:\Savage rose\The Savage Rose - Roots Of The Wasteland.wav

Пиковый уровень 88.8 %
Качество диапазона 100.0 %
CRC теста F0681AE6
CRC копии F0681AE6
Копирование… OK

Ошибок не произошло


AccurateRip: сводка

Трек 1 точность не определена (достоверность 2) [59F57C55], AccurateRip вернул [E3E90300]
Трек 2 точность не определена (достоверность 2) [E65E04DB], AccurateRip вернул [79D55CDF]
Трек 3 точность не определена (достоверность 2) [0384BDCF], AccurateRip вернул [3E1C4467]
Трек 4 точность не определена (достоверность 2) [4AF3FEAB], AccurateRip вернул [AC282E1A]
Трек 5 точность не определена (достоверность 2) [B4736BCC], AccurateRip вернул [9B1F3F15]
Трек 6 точность не определена (достоверность 2) [B63E3CA8], AccurateRip вернул [8E4D38ED]
Трек 7 точность не определена (достоверность 2) [C835EC71], AccurateRip вернул [E6E59F4E]
Трек 8 точность не определена (достоверность 2) [F90A1669], AccurateRip вернул [ACA01646]
Трек 9 точность не определена (достоверность 2) [8876FB95], AccurateRip вернул [C7ABBD4E]
Трек 10 точность не определена (достоверность 2) [7CAFFD63], AccurateRip вернул [FA650BE1]

Ни один трек не прошёл проверки на точность
В вашей базе может быть иной вариант штамповки диска

Конец отчёта

foobar2000 1.2.9 / Dynamic Range Meter 1.1.1
log date: 2014-12-01 16:09:24

––––––––––––––––––––––––––––––––––––––––
Analyzed: The Savage Rose / Roots Of The Wasteland
––––––––––––––––––––––––––––––––––––––––

DR Peak RMS Duration Track
––––––––––––––––––––––––––––––––––––––––
DR7 -1.06 dB -10.34 dB 3:41 01-The Joker
DR7 -1.11 dB -10.59 dB 3:55 02-Dear Little Children Of Mine
DR7 -1.10 dB -9.49 dB 4:49 03-You'll Know In The Morning
DR6 -1.09 dB -8.61 dB 4:49 04-The Shoeshine Boy Is dead
DR6 -1.02 dB -9.27 dB 5:09 05-Refugee
DR6 -1.11 dB -9.59 dB 3:40 06-So Long Gone
DR6 -1.10 dB -8.67 dB 3:27 07-Black Angel
DR6 -1.10 dB -9.15 dB 3:50 08-Mr. World
DR7 -1.09 dB -9.87 dB 4:32 09-The Storm
DR10 -1.11 dB -14.72 dB 3:02 10-Waste And Lullaby
––––––––––––––––––––––––––––––––––––––––

Number of tracks: 10
Official DR value: DR7

Samplerate: 44100 Hz
Channels: 2
Bits per sample: 16
Bitrate: 848 kbps
Codec: FLAC

[CUETools log; Date: 01.12.2014 16:09:46; Version: 2.1.4]
[CTDB TOCID: D5c3ZDmwzfunPVC_loOog1xncos-] found.
Track | CTDB Status
1 | (4/4) Accurately ripped
2 | (4/4) Accurately ripped
3 | (4/4) Accurately ripped
4 | (4/4) Accurately ripped
5 | (4/4) Accurately ripped
6 | (4/4) Accurately ripped
7 | (4/4) Accurately ripped
8 | (4/4) Accurately ripped
9 | (4/4) Accurately ripped
10 | (4/4) Accurately ripped
[AccurateRip ID: 000fde48-007ee74f-7b09960a] found.
Track [ CRC | V2 ] Status
01 [59f57c55|e3e90300] (0+2/2) Accurately ripped
02 [e65e04db|79d55cdf] (0+2/2) Accurately ripped
03 [0384bdcf|3e1c4467] (0+2/2) Accurately ripped
04 [4af3feab|ac282e1a] (0+2/2) Accurately ripped
05 [b4736bcc|9b1f3f15] (0+2/2) Accurately ripped
06 [b63e3ca8|8e4d38ed] (0+2/2) Accurately ripped
07 [c835ec71|e6e59f4e] (0+2/2) Accurately ripped
08 [f90a1669|aca01646] (0+2/2) Accurately ripped
09 [8876fb95|c7abbd4e] (0+2/2) Accurately ripped
10 [7caffd63|fa650be1] (0+2/2) Accurately ripped

Track Peak [ CRC32 ] [W/O NULL] [ LOG ]
– 88,8 [DB255073] [F0681AE6] W/O NULL
01 88,5 [E5B7F197] [6C1B4591]
02 88,0 [8BB78D49] [8A91570A]
03 88,0 [BC7FBF93] [50D2C61A]
04 88,1 [0421BBD5] [3DEA2408]
05 88,8 [D27E1EC1] [C755E086]
06 88,0 [196B53AD] [91BF3552]
07 88,1 [329AE355] [29CE35AE]
08 88,0 [FB0CB84D] [BD44F719]
09 88,2 [FB2AC1AD] [98E1DAF4]
10 88,0 [AD6904A2] [AFA308A0]

The Savage Rose - Roots Of The Wasteland (2014)

All thanks go to sav1965