Tags
Language
Tags

The Shadows - Rockin' With Curley Leads (1973)

Posted By: v3122
The Shadows - Rockin' With Curley Leads (1973)

The Shadows - Rockin' With Curley Leads (1973)
EAC | Flac(Image) + Cue + Log & MP3 CBR 320Kbps
1997 | BGO Records, BGO CD 84 | ~ 269 or 107 Mb | Artwork(jpg) -> 17 Mb
Pop Rock / Instrumental Rock

Re-forming after a four year absence, the Shadows broke into the 1970s with an almost brutal lack of restraint – and an instrumental version of the Who's "Pinball Wizard"/"See Me Feel Me," which rearranges the simplistic original with fiendish aplomb. A decade earlier, Hank Marvin was the idol of every would-be guitarist in the U.K.. By 1973, those would-bes were the hottest shots around, but Marvin wasn't even slightly phased. "Pinball Wizard," on the other hand, is. It's also wah-wahed, echoed, and everything else he can throw into the pot. An astonishing workout – and only the beginning of the treats in store. Almost without exception, the 11 songs which followed completely rewrite the Shadows' intended role in this brave new world. News of their reunion was greeted with a weary sigh, and the inescapable suspicion that they were back to ride the nostalgia circuit and build up their pension funds with re-creations of their past. Instead, there's not a note in sight which even wants to sound like "Apache." In fairness, "Good Vibrations" probably didn't need to be revisited, and the single "Turn Around And Touch Me" is pretty weak as well. But "Wide Eyed Frog" is a swampy, Shaft-y burble; "Gutbucket" is a churning, funky stomp; "Jumpin' Jack Input" is a firestorm boogie. True, the album is a little more polite than it could have been; true, too, once Hank Marvin has run through his arsenal of wild effects a couple of times, they don't seem so special (or wild) any longer. But in an age which had already seen so many old rockers make decidedly slight returns, Curly Leads at least knows what year it now is.

by Dave Thompson , allmusic
The Shadows - Rockin' With Curley Leads (1973):

The Shadows - Rockin' With Curley Leads (1973)

Tracklist:

01. Pinball wizard/See me feel me (2:59)
02. Years away (3:05)
03. Humbucker (4:19)
04. Deep roots (3:35)
05. Jungle jam (4:34)
06. Gracie (3:01)
07. Good vibrations (4:27)
08. Turn around and touch me (2:55)
09. Wide mouthed frog (4:24)
10. Rockin' with curly leads (2:58)
11. Gutbucket (4:11)
12. Jumpin' jack input (3:38)

Exact Audio Copy V0.99 prebeta 5 from 4. May 2009

Отчёт EAC об извлечении, выполненном 19. сентября 2009, 21:23

The Shadows / Rockin' With Curley Leads

Дисковод: _NEC DVD_RW ND-4570A Adapter: 0 ID: 0

Режим чтения : Достоверность
Использование точного потока : Да
Отключение кэша аудио : Нет
Использование указателей C2 : Да

Коррекция смещения при чтении : 48
Способность читать области Lead-in и Lead-out : Нет
Заполнение пропущенных сэмплов тишиной : Да
Удаление блоков с тишиной в начале и конце : Нет
При вычислениях CRC использовались нулевые сэмплы : Да
Интерфейс : Установленный внешний ASPI-интерфейс

Выходной формат : Внутренние WAV-операции
Формат сэмплов : 44.100 Гц; 16 бит; стерео


TOC извлечённого CD

Трек | Старт | Длительность | Начальный сектор | Конечный сектор
––––––––––––––––––––––––––––––––––-
1 | 0:00.32 | 3:05.50 | 32 | 13956
2 | 3:06.07 | 3:10.23 | 13957 | 28229
3 | 6:16.30 | 4:23.00 | 28230 | 47954
4 | 10:39.30 | 3:39.65 | 47955 | 64444
5 | 14:19.20 | 4:39.20 | 64445 | 85389
6 | 18:58.40 | 3:07.00 | 85390 | 99414
7 | 22:05.40 | 4:30.70 | 99415 | 119734
8 | 26:36.35 | 2:58.15 | 119735 | 133099
9 | 29:34.50 | 4:27.15 | 133100 | 153139
10 | 34:01.65 | 3:02.05 | 153140 | 166794
11 | 37:03.70 | 4:15.17 | 166795 | 185936
12 | 41:19.12 | 3:38.13 | 185937 | 202299


Характеристики диапазона извлечения и сообщения об ошибках

Выбранный диапазон

Имя файла G:\Раздача\Рапида\The Shadows\1973-Rockin' With Curley Leads (Dig.Rem.1997)\The Shadows - Rockin' With Curley Leads.wav

Пиковый уровень 95.4 %
Качество диапазона 100.0 %
CRC копии 87EFA2A0
Копирование… OK

Ошибок не произошло


AccurateRip: сводка

Трек 1 точное извлечение (доверие 2) [AFB50CFE]
Трек 2 точное извлечение (доверие 2) [2CDB9249]
Трек 3 точное извлечение (доверие 2) [786D00B7]
Трек 4 точное извлечение (доверие 2) [8268FE23]
Трек 5 точное извлечение (доверие 2) [E17737D4]
Трек 6 точное извлечение (доверие 2) [6D620E8A]
Трек 7 точное извлечение (доверие 2) [9492E07D]
Трек 8 точное извлечение (доверие 2) [CD0A0E87]
Трек 9 точное извлечение (доверие 2) [8D3D1D8D]
Трек 10 точное извлечение (доверие 2) [5DDB6A10]
Трек 11 точное извлечение (доверие 2) [990CC1F2]
Трек 12 точное извлечение (доверие 2) [06B30DA1]

Все треки извлечены точно

Конец отчёта


[CUETools log; Date: 16.08.2021 10:05:33; Version: 2.1.4]
Pregap length 00:00:32.
[AccurateRip ID: 0013d7cf-00ba6e8b-a10a890c] found.
Track [ CRC | V2 ] Status
01 [afb50cfe|b9cdccb3] (3+3/6) Accurately ripped
02 [2cdb9249|a9ce1b09] (3+3/6) Accurately ripped
03 [786d00b7|5ff00462] (3+3/6) Accurately ripped
04 [8268fe23|c8cbdb7c] (3+3/6) Accurately ripped
05 [e17737d4|b9009f9c] (3+3/6) Accurately ripped
06 [6d620e8a|900e137d] (3+3/6) Accurately ripped
07 [9492e07d|ebf747d7] (3+3/6) Accurately ripped
08 [cd0a0e87|16c771d7] (3+3/6) Accurately ripped
09 [8d3d1d8d|13f86815] (2+3/5) Accurately ripped
10 [5ddb6a10|63041959] (3+3/6) Accurately ripped
11 [990cc1f2|688a1498] (3+3/6) Accurately ripped
12 [06b30da1|9ebbb1dd] (3+3/6) Accurately ripped

Track Peak [ CRC32 ] [W/O NULL] [ LOG ]
– 95,4 [87EFA2A0] [102F01EB] CRC32
01 89,8 [E9CB96AB] [7395B0B4]
02 74,2 [947EC747] [6949092E]
03 92,1 [DFBD0308] [BF08D21E]
04 90,3 [C5129A28] [3CC4FAE8]
05 85,3 [13C09A67] [0E5D5DEC]
06 74,2 [55F3AB42] [C3A70637]
07 72,3 [13D41D76] [60C80D65]
08 95,4 [F806698E] [2F512FFD]
09 74,9 [9D40FE1B] [A6F0C7E7]
10 91,0 [CBE59B4C] [6683C88C]
11 94,2 [3E60D967] [E82C414F]
12 73,6 [5FA22218] [3441C7BC]


The Shadows - Rockin' With Curley Leads (1973)

All thanks go to the original releaser

The Shadows in my Blog

Download The Shadows - Rockin' With Curley Leads (1973):